<?xml version="1.0" standalone="no"?>
<!DOCTYPE svg PUBLIC "-//W3C//DTD SVG 1.1//EN" "http://www.w3.org/Graphics/SVG/1.1/DTD/svg11.dtd" >
<svg xmlns="http://www.w3.org/2000/svg">
<metadata></metadata>
<defs>
<font id="san_francisco_textitalic" horiz-adv-x="1119" >
<font-face units-per-em="2048" ascent="1638" descent="-410" />
<missing-glyph horiz-adv-x="468" />
<glyph horiz-adv-x="0" />
<glyph unicode="&#xd;" horiz-adv-x="0" />
<glyph unicode=" "  horiz-adv-x="468" />
<glyph unicode="&#x09;" horiz-adv-x="468" />
<glyph unicode="&#xa0;" horiz-adv-x="468" />
<glyph unicode="!" horiz-adv-x="613" d="M140 116q0 59 39 98t94 39q59 0 98.5 -39t39.5 -98q0 -56 -39.5 -94.5t-98.5 -38.5q-55 0 -94 38.5t-39 94.5zM257 429l136 937h179l-196 -937h-119z" />
<glyph unicode="&#x22;" horiz-adv-x="991" d="M340 878l61 488h177l-111 -488h-127zM714 878l61 488h177l-111 -488h-127z" />
<glyph unicode="#" horiz-adv-x="1239" d="M94 394l50 131h207l126 333h-195l49 131h196l146 377h136l-146 -377h290l140 377h135l-145 -377h219l-49 -131h-214l-127 -333h202l-49 -131h-203q-28 -77 -85 -225.5t-65 -168.5h-136l150 394h-289q-27 -71 -78.5 -204.5t-72.5 -189.5h-136l150 394h-206zM487 525h290 l125 333h-289z" />
<glyph unicode="$" horiz-adv-x="1129" d="M87 333q0 22 1 32h144q-1 -5 -1 -11q0 -74 54 -138t145 -91l111 534l-42 18q-58 27 -103.5 56.5t-87 71t-64 97t-22.5 121.5q0 169 129.5 270t319.5 101h23l25 120h130l-29 -139q127 -31 205.5 -114t78.5 -218v-18h-132q0 17 -1 25q-8 69 -56.5 120.5t-121.5 77.5 l-104 -490q3 -1 10 -4t12 -5q84 -36 136.5 -65.5t102 -73t72.5 -101.5t23 -134q0 -187 -135 -292.5t-353 -105.5q-20 0 -30 2l-22 -109h-128l26 125q-152 34 -234 128t-82 210zM373 1027q0 -73 43.5 -120t135.5 -91q3 -2 9.5 -5t9.5 -4l97 461h-13q-50 0 -98.5 -15 t-90.5 -43.5t-67.5 -76t-25.5 -106.5zM553 104h19q147 0 238 70t91 186q0 47 -16 85t-48.5 67t-70.5 50.5t-92 44.5l-15 6z" />
<glyph unicode="%" horiz-adv-x="1486" d="M125 978q0 46 7 87l4 26q19 126 97.5 205.5t190.5 79.5q114 0 179 -84.5t65 -212.5q0 -41 -7 -86l-4 -26q-18 -123 -96.5 -205.5t-194.5 -82.5t-178.5 83t-62.5 216zM174 0l556 683l556 683h150l-556 -683l-556 -683h-150zM245 979q0 -84 32.5 -134t97.5 -50 q67 0 111 52.5t55 142.5l2 14q5 40 5 68q0 85 -32 137t-97 52q-67 0 -110.5 -55t-56.5 -145l-1 -7q-6 -37 -6 -75zM937 290q0 46 7 87l4 26q19 126 97.5 205.5t190.5 79.5q114 0 179 -84.5t65 -212.5q0 -41 -7 -86l-4 -26q-18 -123 -96.5 -205.5t-194.5 -82.5t-178.5 83 t-62.5 216zM1057 291q0 -84 32.5 -134t97.5 -50q67 0 111 52.5t55 142.5l2 14q5 40 5 68q0 85 -32 137t-97 52q-67 0 -110.5 -55t-56.5 -145l-1 -7q-6 -38 -6 -75z" />
<glyph unicode="&#x26;" horiz-adv-x="1391" d="M137 369q0 65 22 122.5t55 98.5t85 79t99 63.5t110 53.5l27 12q-40 64 -61 103t-39 95t-18 108q0 139 102.5 217.5t251.5 78.5t238.5 -78.5t89.5 -204.5q0 -66 -26 -122t-75 -99t-101 -73.5t-122 -61.5l-32 -14l286 -408q91 123 122 273q16 78 19 145h152 q-7 -78 -22 -159q-21 -112 -64.5 -201t-122.5 -180l152 -217h-182l-80 117q-185 -134 -410 -134q-113 0 -202.5 32.5t-143.5 87t-82 122.5t-28 144zM302 374q0 -46 17 -89t51 -81.5t95 -62t139 -23.5q90 0 175.5 30t144.5 86l-315 455l-23 -10q-284 -123 -284 -305z M570 1091q0 -102 103 -241l23 9q256 101 256 253q0 74 -54 113t-131 39q-81 0 -139 -44t-58 -129z" />
<glyph unicode="'" horiz-adv-x="617" d="M340 878l61 488h177l-111 -488h-127z" />
<glyph unicode="(" horiz-adv-x="678" d="M178 317q0 154 26 298.5t68 256.5t98.5 210t112 165.5t114.5 116.5h144q-45 -40 -92 -94.5t-105 -150t-102 -204t-74 -261t-30 -316.5q0 -197 32 -331.5t101 -270.5h-145q-64 122 -106 276.5t-42 304.5z" />
<glyph unicode=")" horiz-adv-x="677" d="M11 -264q45 39 92 94.5t105 151.5t102 205.5t74 262.5t30 317q0 193 -32.5 326.5t-100.5 270.5h145q64 -123 106 -274.5t42 -300.5q0 -154 -26 -299.5t-68 -258t-98 -211.5t-112.5 -167t-114.5 -117h-144z" />
<glyph unicode="*" horiz-adv-x="984" d="M216 898l310 108l-268 190l77 99l249 -215l30 328l124 -18l-62 -323l299 139l47 -117l-311 -108l269 -190l-77 -99l-249 214l-30 -327l-124 18l61 322l-298 -138z" />
<glyph unicode="+" horiz-adv-x="1150" d="M125 480l23 129h405l76 429h138l-76 -429h406l-23 -129h-406l-81 -454h-137l80 454h-405z" />
<glyph unicode="," horiz-adv-x="532" d="M-43 -413l264 594h213l-337 -594h-140z" />
<glyph unicode="-" horiz-adv-x="866" d="M144 493l24 140h634l-25 -140h-633z" />
<glyph unicode="." horiz-adv-x="548" d="M99 116q0 59 39 98t94 39q59 0 98.5 -39t39.5 -98q0 -56 -39.5 -94.5t-98.5 -38.5q-55 0 -94 38.5t-39 94.5z" />
<glyph unicode="/" horiz-adv-x="715" d="M-56 -289l732 1704h149l-732 -1704h-149z" />
<glyph unicode="0" horiz-adv-x="1211" d="M182 495q0 113 18 220l14 83q47 278 182 437t346 159q197 0 305 -135.5t108 -401.5q0 -112 -18 -208l-16 -83q-25 -132 -69 -238.5t-108.5 -187.5t-153.5 -125t-197 -44q-199 0 -305 132t-106 392zM336 498q0 -192 67 -287t191 -95q142 0 238 122t137 357l14 80 q18 101 18 198q0 176 -68.5 276.5t-195.5 100.5q-272 0 -368 -481l-16 -80q-17 -88 -17 -191z" />
<glyph unicode="1" horiz-adv-x="942" d="M276 1014l24 165l335 187h171l-241 -1366h-163l213 1198h-13z" />
<glyph unicode="2" horiz-adv-x="1127" d="M110 0l20 112l567 567q49 49 79.5 82.5t67.5 82.5t55 96t18 93q0 87 -64.5 152t-180.5 65q-115 0 -184.5 -65t-77.5 -156h-156q5 153 123 259.5t304 106.5q181 0 286.5 -101.5t105.5 -253.5q0 -65 -19.5 -125t-62.5 -120.5t-83.5 -105.5t-110.5 -114l-424 -420l-3 -13 h627l-25 -142h-862z" />
<glyph unicode="3" horiz-adv-x="1128" d="M112 304q0 22 4 42h152q-1 -7 -1 -16q0 -81 79.5 -148.5t207.5 -67.5q129 0 214.5 72t85.5 188q0 119 -85.5 190t-212.5 76l-86 3l25 152q69 -4 95 -4q87 0 158.5 23t120 78.5t48.5 136.5q0 104 -73.5 163.5t-184.5 59.5q-102 0 -162.5 -47.5t-75.5 -114.5h-156 q9 128 116.5 216.5t281.5 88.5q80 0 151.5 -21t129.5 -61.5t92 -108t34 -153.5q0 -78 -28 -142t-72.5 -104t-96 -63t-103.5 -27l-2 -13q117 -27 182.5 -113.5t65.5 -211.5q0 -180 -130.5 -293t-338.5 -113q-101 0 -185.5 29t-138 77t-82.5 106.5t-29 120.5z" />
<glyph unicode="4" horiz-adv-x="1203" d="M120 298l20 146q97 141 230 312.5t233.5 293.5t263.5 316h238l-160 -925h200l-22 -143h-202l-53 -298h-157l53 298h-644zM312 441h478l139 779h-13q-432 -533 -602 -766z" />
<glyph unicode="5" horiz-adv-x="1158" d="M155 298q0 24 5 49h148q-2 -14 -2 -21q0 -77 71.5 -145t193.5 -68q144 0 240.5 96.5t96.5 250.5q0 135 -76 210t-195 75q-74 0 -145 -30t-112 -88h-152l175 739h709l-20 -143h-568l-106 -443h13q37 46 110.5 72t150.5 26q163 0 269 -115t106 -302q0 -138 -60 -248.5 t-174.5 -176t-264.5 -65.5q-83 0 -153.5 21t-117.5 55t-80 77.5t-47.5 87.5t-14.5 86z" />
<glyph unicode="6" horiz-adv-x="1167" d="M182 501q0 283 79 490q158 392 505 392q165 0 270 -96.5t105 -220.5q0 -14 -1 -20h-143q-8 83 -75 136.5t-164 53.5q-155 0 -259 -132t-138 -376h13q37 63 108.5 108.5t180.5 45.5q78 0 149 -28t126 -79.5t87.5 -131.5t32.5 -177q0 -211 -126 -345t-322 -134 q-203 0 -315.5 136.5t-112.5 377.5zM343 439q0 -136 75 -226t196 -90q131 0 206 92.5t75 243.5q0 132 -77 209t-197 77q-127 0 -202.5 -87t-75.5 -219z" />
<glyph unicode="7" horiz-adv-x="1112" d="M152 0l765 1210l1 13h-682l18 143h860l-15 -131l-768 -1235h-179z" />
<glyph unicode="8" horiz-adv-x="1191" d="M146 350q0 73 24 134.5t61 102t85 70.5t93 45t88 20l3 13q-192 103 -192 294q0 162 123.5 264t302.5 102q107 0 196 -37t147 -116.5t58 -187.5q0 -73 -26.5 -134.5t-69 -100.5t-91 -63.5t-98.5 -31.5l-2 -14q43 -14 82.5 -39.5t76.5 -64.5t59 -99t22 -132q0 -95 -39 -173 t-105.5 -127.5t-152 -76.5t-181.5 -27q-69 0 -135 14t-126 44t-105 73.5t-71.5 107t-26.5 140.5zM315 368q0 -122 86.5 -188t211.5 -66q133 0 223.5 74t90.5 199q0 124 -90 193t-212 69q-132 0 -221 -79t-89 -202zM471 1013q0 -102 69.5 -161t174.5 -59q114 0 187.5 68 t73.5 176q0 105 -70 163t-173 58q-115 0 -188.5 -70t-73.5 -175z" />
<glyph unicode="9" horiz-adv-x="1166" d="M162 312q0 14 1 21h149q3 -87 74.5 -143.5t181.5 -56.5q300 0 373 520h-13q-30 -62 -107 -110.5t-182 -48.5q-104 0 -193.5 47.5t-147.5 145t-58 227.5q0 201 125.5 336.5t320.5 135.5q198 0 311 -126t113 -367q0 -173 -31 -356q-124 -549 -525 -549q-165 0 -278.5 94.5 t-113.5 229.5zM405 919q0 -131 74.5 -209.5t192.5 -78.5q129 0 205 89t76 219q0 138 -74 224.5t-196 86.5q-123 0 -200.5 -94t-77.5 -237z" />
<glyph unicode=":" horiz-adv-x="550" d="M99 116q0 59 39 98t94 39q59 0 98.5 -39t39.5 -98q0 -56 -39.5 -94.5t-98.5 -38.5q-55 0 -94 38.5t-39 94.5zM222 799q0 59 39 98t94 39q59 0 98.5 -39t39.5 -98q0 -56 -39.5 -94.5t-98.5 -38.5q-55 0 -94 38.5t-39 94.5z" />
<glyph unicode=";" horiz-adv-x="547" d="M-77 -413l264 594h213l-337 -594h-140zM219 799q0 59 39 98t94 39q59 0 98.5 -39t39.5 -98q0 -56 -39.5 -94.5t-98.5 -38.5q-55 0 -94 38.5t-39 94.5z" />
<glyph unicode="&#x3c;" d="M203 442l24 143l835 524l-31 -176l-678 -417l-2 -10l547 -378l-30 -166z" />
<glyph unicode="=" d="M141 303l22 128h819l-17 -128h-824zM204 663l23 129h818l-23 -129h-818z" />
<glyph unicode="&#x3e;" d="M120 -38l30 175l679 385l2 10l-542 409l30 150l658 -512l-23 -137z" />
<glyph unicode="?" horiz-adv-x="1025" d="M247 1063q10 69 39 128t77 105.5t121.5 72.5t165.5 26q109 0 197 -35t144 -112t56 -185q0 -56 -16.5 -105.5t-39 -83.5t-61 -68.5t-68.5 -54t-75 -46.5q-98 -58 -134 -93t-48 -106l-14 -77h-154l14 79q20 112 63.5 168t173.5 133q39 23 60 36.5t53 39t48.5 48t29.5 55.5 t13 70q0 95 -69.5 148t-171.5 53q-105 0 -168 -55.5t-80 -140.5h-156zM341 116q0 59 39 98t94 39q59 0 98.5 -39t39.5 -98q0 -56 -39.5 -94.5t-98.5 -38.5q-55 0 -94 38.5t-39 94.5z" />
<glyph unicode="@" horiz-adv-x="1718" d="M152 400q0 -164 54.5 -293.5t152.5 -212.5t230.5 -126.5t291.5 -43.5q134 0 214 26l21 118q-73 -25 -214 -25q-282 0 -447.5 146t-165.5 420q0 78 13 152l9 48q34 179 131 310t233.5 196.5t295.5 65.5q157 0 285 -57.5t206 -173t78 -270.5q0 -60 -7 -103l-6 -37 q-25 -151 -90.5 -224.5t-146.5 -73.5q-50 0 -82.5 29.5t-32.5 78.5q0 13 3 28l83 474h-132l-22 -128h-8q-6 59 -57.5 102.5t-135.5 43.5q-116 0 -194 -78.5t-104 -217.5l-16 -86q-8 -43 -8 -96q0 -117 68.5 -188t178.5 -71q88 0 146 39t82 96h10q8 -53 68.5 -92.5 t139.5 -39.5q138 0 241 99t136 282l9 50q8 45 8 121q0 125 -48 236t-135.5 195t-221.5 133t-296 49q-196 0 -360 -77.5t-278 -231t-153 -363.5l-11 -60q-16 -91 -16 -169zM725 414q0 40 7 76l13 64q21 101 68 150t111 49q72 0 113 -51t41 -120q0 -22 -5 -55l-14 -79 q-17 -101 -64 -149t-116 -48q-75 0 -114.5 46t-39.5 117z" />
<glyph unicode="A" horiz-adv-x="1246" d="M-10 0l729 1366h170l247 -1366h-165l-69 422h-520l-218 -422h-174zM453 554h426l-100 613h-12z" />
<glyph unicode="B" horiz-adv-x="1276" d="M136 0l241 1366h442q108 0 187.5 -27t122 -72.5t61.5 -96.5t19 -109q0 -126 -79 -218t-188 -120l-2 -10q111 -22 174.5 -98.5t63.5 -202.5q0 -189 -145 -300.5t-408 -111.5h-489zM321 140h321q163 0 267.5 72t104.5 200q0 102 -75.5 162.5t-236.5 60.5h-294zM433 775h284 q140 0 230.5 70.5t90.5 191.5q0 94 -63.5 141.5t-203.5 47.5h-258z" />
<glyph unicode="C" horiz-adv-x="1295" d="M180 495q0 105 9 151l49 252q47 242 197 369.5t359 127.5q110 0 202.5 -34t153.5 -91t95 -130t34 -151q0 -25 -2 -31h-156q0 18 -1 26q-5 45 -26.5 89t-60 83.5t-101.5 64t-142 24.5q-159 0 -257 -98t-136 -281l-41 -203q-14 -65 -14 -163t28.5 -172.5t79 -118.5 t113.5 -65.5t137 -21.5q140 0 225.5 68t107.5 169h161q-1 -16 -8 -46q-14 -61 -49.5 -118t-94 -108.5t-150.5 -83t-204 -31.5q-81 0 -154.5 18.5t-138.5 60t-112.5 101.5t-75 148t-27.5 195z" />
<glyph unicode="D" horiz-adv-x="1355" d="M136 0l241 1366h372q266 0 408 -138.5t142 -374.5q0 -87 -12 -156l-28 -155q-98 -542 -752 -542h-371zM322 143h186q245 0 399.5 105t192.5 310l26 139q10 54 10 139q0 192 -108.5 289.5t-323.5 97.5h-190z" />
<glyph unicode="E" horiz-adv-x="1133" d="M136 0l241 1366h799l-25 -143h-638l-80 -446h607l-23 -143h-609l-87 -491h643l-24 -143h-804z" />
<glyph unicode="F" horiz-adv-x="1112" d="M136 0l242 1366h797l-24 -143h-637l-86 -479h587l-22 -143h-589l-107 -601h-161z" />
<glyph unicode="G" horiz-adv-x="1355" d="M179 495q0 96 11 151l49 252q47 242 200.5 369.5t370.5 127.5q94 0 175 -24t138.5 -64t98.5 -92.5t60.5 -110t19.5 -115.5q0 -25 -2 -31h-157q0 18 -1 26q-3 43 -23.5 86t-58.5 83.5t-104.5 65.5t-151.5 25q-164 0 -266.5 -98.5t-139.5 -280.5l-41 -202q-15 -81 -15 -163 q0 -98 28.5 -173t79.5 -119.5t115 -66.5t140 -22q80 0 152 25t126.5 82t68.5 136l34 194h-358l26 143h519l-62 -351q-32 -177 -177.5 -276.5t-340.5 -99.5q-82 0 -155 18t-139.5 58t-114.5 99.5t-76.5 148.5t-28.5 199z" />
<glyph unicode="H" horiz-adv-x="1416" d="M136 0l241 1366h161l-103 -586h701l104 586h161l-241 -1366h-155l106 638h-701l-113 -638h-161z" />
<glyph unicode="I" horiz-adv-x="553" d="M136 0l241 1366h161l-241 -1366h-161z" />
<glyph unicode="J" horiz-adv-x="1004" d="M51 287q0 36 6 57h150q-2 -30 -2 -34q0 -83 57.5 -137t151.5 -54q194 0 237 244l177 1003h161l-179 -1014q-19 -105 -57 -180.5t-91.5 -118t-112.5 -61.5t-129 -19q-160 0 -264.5 88.5t-104.5 225.5z" />
<glyph unicode="K" horiz-adv-x="1271" d="M136 0l242 1366h161l-124 -677h13l739 677h206l-653 -606l424 -760h-189l-359 666l-215 -186l-84 -480h-161z" />
<glyph unicode="L" horiz-adv-x="1048" d="M136 0l241 1366h161l-217 -1223h635l-26 -143h-794z" />
<glyph unicode="M" horiz-adv-x="1633" d="M136 0l241 1366h151l285 -998h8l627 998h170l-241 -1366h-155l181 1031h-10l-558 -876h-104l-251 876h-11l-178 -1031h-155z" />
<glyph unicode="N" horiz-adv-x="1426" d="M136 0l241 1366h161l506 -1102h10l196 1102h161l-241 -1366h-159l-511 1099h-10l-193 -1099h-161z" />
<glyph unicode="O" horiz-adv-x="1384" d="M176 481q0 116 15 201l38 212q43 238 196.5 369.5t368.5 131.5q244 0 392 -143t148 -393q0 -85 -16 -169l-39 -213q-45 -245 -191 -375.5t-392 -130.5q-148 0 -264.5 58.5t-186 175.5t-69.5 276zM340 506q0 -178 102 -281t280 -103q162 0 263.5 100.5t136.5 297.5l38 213 q8 44 8 134q0 172 -102.5 274.5t-275.5 102.5q-155 0 -258.5 -92t-139.5 -287l-37 -198q-15 -82 -15 -161z" />
<glyph unicode="P" horiz-adv-x="1189" d="M136 0l241 1366h436q189 0 294 -100t105 -253q0 -33 -5 -76q-50 -409 -553 -409h-264l-93 -528h-161zM414 668h262q77 0 139 14.5t102 39t68 59.5t42 72.5t18 80.5q5 33 5 66q0 99 -63.5 162.5t-200.5 63.5h-273z" />
<glyph unicode="Q" horiz-adv-x="1404" d="M176 481q0 116 15 201l38 212q43 238 196.5 369.5t368.5 131.5q244 0 392 -143t148 -393q0 -85 -16 -169l-39 -213q-54 -292 -246 -418l126 -217h-175l-92 155q-90 -26 -196 -26q-148 0 -264.5 58.5t-186 175.5t-69.5 276zM339 500q0 -178 101 -280t280 -102q50 0 93 9 l-154 258h185l111 -193q126 98 166 322l39 219q8 44 8 134q0 172 -102.5 274.5t-275.5 102.5q-155 0 -258.5 -92t-139.5 -287l-37 -198q-16 -87 -16 -167z" />
<glyph unicode="R" horiz-adv-x="1261" d="M136 0l242 1366h448q190 0 291 -94.5t101 -248.5q0 -45 -6 -87q-19 -139 -107 -230t-212 -122l190 -584h-175l-177 559q-28 -2 -69 -2h-267l-98 -557h-161zM420 697h264q323 0 358 252q5 35 5 69q0 95 -61.5 151.5t-197.5 56.5h-274z" />
<glyph unicode="S" horiz-adv-x="1208" d="M124 333q0 25 3 46h159q-1 -8 -1 -25q0 -94 89.5 -166t237.5 -72q141 0 225.5 68.5t84.5 179.5q0 50 -18.5 88.5t-57.5 67t-76.5 47t-97.5 40.5l-54 20q-59 22 -106 44.5t-98 57.5t-85 74.5t-56 95t-22 119.5q0 117 62.5 203.5t166 130t231.5 43.5q114 0 211 -39.5 t160 -120.5t63 -190l-2 -34h-153q1 4 1 16q0 101 -82 162.5t-200 61.5q-115 0 -202.5 -58t-87.5 -167q0 -87 66.5 -142t194.5 -106l73 -29q64 -25 104 -44t89.5 -51.5t77 -67.5t47 -88t19.5 -118q0 -191 -134.5 -299.5t-351.5 -108.5q-107 0 -199 31t-152.5 82t-94.5 115.5 t-34 132.5z" />
<glyph unicode="T" horiz-adv-x="1123" d="M212 1223l25 143h1011l-23 -143h-426l-217 -1223h-161l217 1223h-426z" />
<glyph unicode="U" horiz-adv-x="1380" d="M202 411q0 65 14 142l143 813h165l-147 -830q-8 -40 -8 -101q0 -140 86 -226t234 -86q138 0 234 79.5t124 235.5l164 928h165l-166 -939q-41 -229 -179.5 -342.5t-342.5 -113.5q-215 0 -350.5 118t-135.5 322z" />
<glyph unicode="V" horiz-adv-x="1235" d="M224 1366h174l185 -1166h10l600 1166h179l-729 -1366h-170z" />
<glyph unicode="W" horiz-adv-x="1771" d="M258 1366h173l39 -1124h11l502 1124h149l117 -1124h11l443 1124h172l-565 -1366h-163l-128 1098h-11l-499 -1098h-168z" />
<glyph unicode="X" horiz-adv-x="1219" d="M-8 0h200l450 567l9 -1l278 -566h180l-348 680l587 686h-200l-467 -558l-9 1l-261 557h-180l330 -676z" />
<glyph unicode="Y" horiz-adv-x="1131" d="M195 1366h170l258 -634h10l465 634h191l-599 -774l-104 -592h-161l104 591z" />
<glyph unicode="Z" horiz-adv-x="1206" d="M96 0l21 125l917 1087l2 13h-728l24 141h925l-20 -131l-914 -1082l-3 -12h758l-26 -141h-956z" />
<glyph unicode="[" horiz-adv-x="676" d="M55 -229l282 1595h417l-21 -119h-268l-240 -1356h282l-22 -120h-430z" />
<glyph unicode="\" horiz-adv-x="651" d="M212 1415h149l242 -1704h-149z" />
<glyph unicode="]" horiz-adv-x="676" d="M-10 -229l21 120h281l240 1356h-269l22 119h417l-282 -1595h-430z" />
<glyph unicode="^" horiz-adv-x="796" d="M140 799l348 567h161l153 -567h-137l-109 437h-9l-262 -437h-145z" />
<glyph unicode="_" horiz-adv-x="899" d="M-61 -214l26 125h919l-27 -125h-918z" />
<glyph unicode="`" horiz-adv-x="1000" d="M417 1563h182l188 -356h-130z" />
<glyph unicode="a" horiz-adv-x="1105" d="M112 275q0 30 2 48q15 134 121.5 212t302.5 78h286l12 66q4 22 4 50q0 38 -12 72t-37 64.5t-72 48.5t-110 18q-94 0 -152.5 -37.5t-78.5 -94.5h-155q23 120 129 193t270 73q179 0 274 -90.5t95 -235.5q0 -61 -20 -169l-101 -571h-154l25 143h-11q-33 -64 -112 -112 t-189 -48q-135 0 -226 79t-91 213zM272 294q0 -75 52 -123t144 -48q113 0 199.5 67.5t106.5 170.5l25 127h-275q-124 0 -188 -55.5t-64 -138.5z" />
<glyph unicode="b" horiz-adv-x="1198" d="M120 0l253 1418h159l-97 -533h13q16 33 38.5 62t58 57.5t88 45t116.5 16.5q166 0 267.5 -105t101.5 -286q0 -74 -8 -120l-36 -202q-29 -161 -140.5 -265.5t-291.5 -104.5q-83 0 -153 37t-109.5 87.5t-52.5 103.5h-12l-37 -211h-158zM367 428q0 -74 24.5 -133.5t64.5 -95 t86.5 -54t94.5 -18.5q118 0 196 80.5t100 200.5l28 158q4 25 4 88q0 132 -70.5 205.5t-193.5 73.5q-121 0 -202 -84t-103 -221l-24 -153q-5 -25 -5 -47z" />
<glyph unicode="c" horiz-adv-x="1061" d="M140 387q0 68 14 152l26 149q32 183 150 280.5t296 97.5q181 0 287 -96t106 -232v-10h-149v10q0 72 -66 133t-178 61q-113 0 -192.5 -74.5t-103.5 -211.5l-21 -118q-11 -59 -11 -107q0 -142 67 -220t196 -78q93 0 154.5 39t76.5 98h162q-22 -125 -132.5 -201t-267.5 -76 q-188 0 -301 110t-113 294z" />
<glyph unicode="d" horiz-adv-x="1196" d="M140 384q0 71 10 120l39 200q31 160 143.5 261t293.5 101q66 0 123.5 -21.5t95 -54.5t61 -70t29.5 -72h13l98 570h159l-249 -1418h-155l31 177h-13q-10 -31 -33 -62.5t-58.5 -61.5t-90 -49t-118.5 -19q-166 0 -272.5 109.5t-106.5 289.5zM299 406q0 -131 72 -206t196 -75 q122 0 201.5 84t104.5 222l28 154q5 25 5 47q0 144 -83 221.5t-191 77.5q-119 0 -194.5 -78t-101.5 -204l-31 -155q-6 -32 -6 -88z" />
<glyph unicode="e" horiz-adv-x="1094" d="M140 378q0 71 17 163l28 154q31 174 154 272.5t303 98.5q78 0 143 -20t106.5 -53.5t73 -78t43.5 -93.5t17 -99q2 -16 1 -32q0 -34 -7 -65l-25 -140h-693q-10 -36 -10 -92q0 -53 14 -99.5t43 -85.5t81 -62t121 -23q95 0 159 39.5t82 95.5h159q-20 -107 -133 -191t-278 -84 q-178 0 -288.5 103.5t-110.5 291.5zM327 612h538l3 16q7 37 7 70q-1 84 -45 146q-62 88 -194 88q-105 0 -186.5 -62.5t-107.5 -185.5z" />
<glyph unicode="f" horiz-adv-x="741" d="M165 905l23 130h171l10 61q27 165 115.5 246.5t247.5 81.5q59 0 114 -11l-23 -128q-31 7 -91 7q-93 0 -139.5 -44.5t-62.5 -137.5l-13 -75h241l-24 -130h-241l-159 -905h-159l160 905h-170z" />
<glyph unicode="g" horiz-adv-x="1191" d="M79 -87h156v-9q0 -62 71.5 -113t179.5 -51q142 0 217.5 74.5t102.5 221.5l28 155h-13q-31 -76 -107.5 -125t-189.5 -49q-98 0 -184 46.5t-141.5 139.5t-55.5 214q0 75 14 143l24 123q19 97 62 172t102 120t127 68t143 23q125 0 208 -62t109 -156h13l36 201h156 l-184 -1041q-36 -204 -153 -304t-323 -100q-177 0 -287.5 89t-110.5 209v11zM299 440q0 -142 73.5 -216.5t201.5 -74.5q111 0 192.5 81.5t104.5 215.5l17 97q10 59 10 96q0 136 -77 214.5t-198 78.5q-115 0 -192 -79.5t-103 -217.5l-16 -84q-13 -73 -13 -111z" />
<glyph unicode="h" horiz-adv-x="1197" d="M120 0l250 1418h159l-100 -543h12q41 91 121 141t194 50q159 0 242.5 -95.5t83.5 -234.5q0 -56 -20 -170l-100 -566h-159l102 576q14 81 14 132q0 98 -50.5 161t-159.5 63q-89 0 -159 -46.5t-109 -117.5t-55 -161l-107 -607h-159z" />
<glyph unicode="i" horiz-adv-x="551" d="M136 0l185 1049h159l-185 -1049h-159zM321 1371q0 51 34 85t83 34q52 0 86 -33.5t34 -85.5q0 -50 -34 -83.5t-86 -33.5q-49 0 -83 33.5t-34 83.5z" />
<glyph unicode="j" horiz-adv-x="551" d="M-170 -330l29 131q38 -10 83 -10q75 0 125 48t64 131l190 1079h159l-188 -1065q-30 -170 -116.5 -248.5t-247.5 -78.5q-41 0 -98 13zM321 1371q0 51 34 85t83 34q52 0 86 -33.5t34 -85.5q0 -50 -34 -83.5t-86 -33.5q-49 0 -83 33.5t-34 83.5z" />
<glyph unicode="k" horiz-adv-x="1077" d="M120 0l251 1418h158l-138 -786h11l511 417h221l-512 -410l334 -639h-177l-282 554l-140 -112l-78 -442h-159z" />
<glyph unicode="l" horiz-adv-x="551" d="M136 0l251 1418h159l-251 -1418h-159z" />
<glyph unicode="m" horiz-adv-x="1769" d="M120 0l185 1049h155l-31 -174h12q34 83 108 137t184 54q114 0 189.5 -53t103.5 -143h11q16 35 40 66.5t61 62.5t92 49t120 18q78 0 138 -25.5t96 -70.5t53.5 -101t17.5 -121q0 -56 -20 -174l-101 -574h-159l103 585q12 72 12 124q0 223 -182 223q-111 0 -182.5 -85.5 t-97.5 -230.5l-110 -616h-159l104 585q11 66 11 126q0 221 -189 221q-124 0 -198.5 -88t-98.5 -228l-109 -616h-159z" />
<glyph unicode="n" horiz-adv-x="1192" d="M120 0l185 1049h156l-32 -174h12q91 191 314 191q83 0 147 -27.5t101 -74.5t55.5 -104.5t18.5 -122.5q0 -59 -20 -171l-100 -566h-159l102 576q14 84 14 131q0 99 -49.5 162t-157.5 63q-89 0 -158.5 -46.5t-108 -117.5t-54.5 -161l-107 -607h-159z" />
<glyph unicode="o" horiz-adv-x="1132" d="M140 384q0 86 12 150l24 141q32 182 153.5 286.5t292.5 104.5q193 0 311 -114t118 -307q0 -57 -12 -125l-26 -142q-35 -188 -150 -291.5t-310 -103.5q-179 0 -296 108.5t-117 292.5zM295 410q0 -131 74.5 -210t203.5 -79q116 0 191 77t100 220l23 133q5 31 5 94 q0 126 -74.5 204.5t-200.5 78.5q-111 0 -187.5 -70.5t-101.5 -212.5l-22 -123q-11 -60 -11 -112z" />
<glyph unicode="p" horiz-adv-x="1196" d="M55 -370l249 1419h156l-30 -164h13q13 32 34.5 60.5t56 57.5t88.5 46t119 17q167 0 271 -105.5t104 -285.5q0 -80 -8 -120l-37 -202q-25 -160 -140.5 -265t-297.5 -105q-65 0 -121.5 23t-94 58.5t-60.5 73.5t-30 73h-13l-100 -581h-159zM359 428q0 -74 24.5 -133.5 t64.5 -95t86.5 -54t93.5 -18.5q120 0 200 81t102 200l28 158q5 31 5 88q0 131 -73 205t-198 74q-121 0 -201.5 -84t-102.5 -221l-25 -153q-4 -25 -4 -47z" />
<glyph unicode="q" horiz-adv-x="1193" d="M140 384q0 76 9 120l41 200q31 157 145 259.5t293 102.5q126 0 210 -69.5t100 -148.5h13l35 201h155l-254 -1418h-159l100 543h-13q-14 -31 -35.5 -60t-56 -59.5t-87.5 -49t-117 -18.5q-164 0 -271.5 109t-107.5 288zM300 406q0 -130 73.5 -204.5t195.5 -74.5t202.5 83.5 t102.5 220.5l26 153q4 23 4 50q0 74 -24.5 133t-64 93.5t-86 52.5t-95.5 18q-118 0 -195 -82t-102 -200l-32 -155q-5 -24 -5 -88z" />
<glyph unicode="r" horiz-adv-x="783" d="M120 0l185 1049h151l-32 -176h12q32 80 112.5 136.5t191.5 56.5q42 0 80 -6l-33 -150q-27 9 -82 9q-134 0 -214.5 -88.5t-105.5 -228.5l-106 -602h-159z" />
<glyph unicode="s" horiz-adv-x="1029" d="M92 285v7h152q0 -7 2 -17q14 -64 84.5 -111t178.5 -47q110 0 170 47.5t60 126.5q0 33 -13 59.5t-29.5 43t-50.5 33t-57.5 24.5t-68.5 22q-37 12 -61 21t-64 26.5t-66.5 39t-53.5 50.5t-40.5 68.5t-13.5 86.5q0 139 97.5 221t273.5 82q89 0 162.5 -26t118.5 -68t69 -91.5 t24 -100.5v-18h-149v7q0 62 -61 116t-167 54q-97 0 -154 -45t-57 -111q0 -22 7 -41.5t16 -33.5t28.5 -28t33.5 -22.5t43 -20t44.5 -17t49.5 -16.5q55 -18 91.5 -33t78.5 -40.5t67 -55t41.5 -74t16.5 -99.5q0 -153 -105.5 -238t-291.5 -85q-178 0 -292 90.5t-114 213.5z" />
<glyph unicode="t" horiz-adv-x="761" d="M170 905l24 130h159l50 278h157l-48 -278h230l-23 -130h-231l-87 -499q-23 -134 -23 -169q0 -51 28 -78.5t98 -27.5q79 0 130 12l-25 -131q-56 -14 -143 -14q-252 0 -252 199q0 55 16 142l100 566h-160z" />
<glyph unicode="u" horiz-adv-x="1178" d="M164 311q0 70 21 179l103 559h158l-103 -570q-15 -86 -15 -141q0 -99 55 -156t165 -57q131 0 211 91t105 232l105 601h153l-184 -1049h-150l32 181h-13q-40 -89 -120.5 -143.5t-190.5 -54.5q-158 0 -245 93.5t-87 234.5z" />
<glyph unicode="v" horiz-adv-x="1032" d="M174 1049h163l122 -873h10l417 873h161l-524 -1049h-172z" />
<glyph unicode="w" horiz-adv-x="1459" d="M152 1049h163l72 -867h9l354 867h142l80 -867h9l357 867h163l-467 -1049h-168l-76 822h-7l-332 -822h-177z" />
<glyph unicode="x" horiz-adv-x="1003" d="M-2 0l434 529l-268 520h172l203 -413h8l327 413h184l-441 -528l275 -521h-176l-205 408h-6l-325 -408h-182z" />
<glyph unicode="y" horiz-adv-x="1041" d="M22 -337l31 129q35 -9 76 -9q87 0 135.5 44.5t89.5 135.5l24 53l-202 1033h170l140 -858h11l415 858h171l-540 -1043l-43 -83q-41 -79 -72 -124t-76 -82t-103.5 -51.5t-143.5 -14.5q-44 0 -83 12z" />
<glyph unicode="z" horiz-adv-x="967" d="M63 0l27 156l686 752l2 13h-586l25 128h771l-27 -151l-686 -751l-2 -13h587l-24 -134h-773z" />
<glyph unicode="{" horiz-adv-x="752" d="M128 501l30 171q101 0 148.5 46.5t66.5 156.5l45 245q14 80 43.5 138.5t66.5 93.5t88.5 56t102 28t114.5 7h53l-22 -126h-42q-225 0 -262 -214l-51 -282q-19 -111 -69 -164.5t-137 -58.5l-4 -23q72 -8 108.5 -66t19.5 -157q-65 -367 -65 -393q0 -84 38 -116t155 -32h42 l-22 -126h-64q-151 0 -224 58t-73 165q0 60 58 390q19 109 -11.5 156t-132.5 47z" />
<glyph unicode="|" horiz-adv-x="669" d="M157 -289l300 1704h149l-300 -1704h-149z" />
<glyph unicode="}" horiz-adv-x="751" d="M-55 -315l22 126h42q226 0 262 215l57 326q19 111 69 164.5t137 58.5l4 23q-71 8 -107.5 66.5t-19.5 156.5q58 322 58 348q0 84 -38 116t-156 32h-41l22 126h63q151 0 224.5 -57.5t73.5 -164.5q0 -79 -15 -179.5t-30 -171.5t-15 -78q0 -62 35.5 -91t116.5 -29l-30 -171 q-101 0 -148.5 -46.5t-66.5 -156.5l-51 -289q-18 -99 -57 -165.5t-97 -100t-119 -46t-143 -12.5h-52z" />
<glyph unicode="~" horiz-adv-x="1167" d="M124 589q5 114 88 205.5t205 91.5q43 0 81 -12t72.5 -38.5t54.5 -45.5t53 -55t53 -55t53 -36.5t66 -17.5q58 0 97.5 41.5t52.5 105.5h140q-12 -119 -92.5 -202t-199.5 -83q-78 0 -135.5 35t-113.5 96q-4 5 -24 26.5t-26 27.5l-22.5 22.5t-26 22t-24.5 14.5t-29.5 12 t-29.5 3q-55 0 -98 -43.5t-55 -114.5h-140z" />
<glyph unicode="&#xa1;" horiz-adv-x="612" d="M106 -317l196 937h119l-136 -937h-179zM267 933q0 56 39.5 94.5t98.5 38.5q55 0 94 -38.5t39 -94.5q0 -59 -39 -98t-94 -39q-59 0 -98.5 39t-39.5 98z" />
<glyph unicode="&#xa2;" d="M183 539q0 68 14 152l26 149q31 180 146 277.5t289 100.5l44 245h128l-46 -257q130 -29 204 -117t74 -199v-10h-149v10q0 72 -66 133t-178 61q-113 0 -192.5 -74.5t-103.5 -211.5l-21 -118q-11 -59 -11 -107q0 -142 67 -220t196 -78q93 0 154.5 39t76.5 98h162 q-22 -125 -132.5 -201t-267.5 -76h-1l-40 -224h-129l42 239q-134 34 -210 136.5t-76 252.5z" />
<glyph unicode="&#xa3;" d="M45 0l25 143q84 0 121 14q114 41 150 247l41 234h-198l23 126h193l64 358q24 135 120.5 203.5t234.5 68.5q171 0 271.5 -97t89.5 -248h-147q10 85 -49 146.5t-161 61.5q-90 0 -143 -49.5t-67 -128.5l-56 -315h304l-23 -126h-299l-42 -241q-34 -197 -158 -251v-12h724 l-24 -134h-994z" />
<glyph unicode="&#xa4;" horiz-adv-x="1128" d="M60 346l220 154q-33 74 -33 164q0 139 100 244l-138 204l107 77l136 -203q74 36 164 36q136 0 239 -106l238 166l74 -110l-239 -165q34 -74 34 -161q0 -145 -113 -256l124 -183l-105 -74l-126 185q-61 -27 -146 -27q-141 0 -242 101l-221 -154zM359 655q0 -106 72 -180 t173 -74t173 74t72 180t-72 180.5t-173 74.5t-173 -74.5t-72 -180.5z" />
<glyph unicode="&#xa5;" d="M194 1366h170l258 -634h10l465 634h191l-530 -684h241l-21 -116h-294l-26 -151h293l-20 -116h-294l-52 -299h-161l52 299h-279l20 116h280l26 151h-279l21 116h224z" />
<glyph unicode="&#xa6;" horiz-adv-x="651" d="M153 -309l121 685h131l-121 -685h-131zM346 783l115 654h131l-115 -654h-131z" />
<glyph unicode="&#xa7;" horiz-adv-x="984" d="M58 46q0 16 4 36h152v-5q1 -63 35.5 -106t88 -62.5t120.5 -19.5q102 0 161.5 49t59.5 125q0 67 -50 108t-164 88l-17 7q-140 58 -212.5 129.5t-72.5 183.5q0 96 62 165.5t152 98.5l1 8q-45 32 -81.5 90t-36.5 137q0 146 108 230.5t270 84.5q63 0 125 -19t115 -54 t85.5 -93.5t32.5 -129.5q0 -22 -5 -52h-147q3 17 3 29q0 81 -66.5 131t-151.5 50q-87 0 -149.5 -43t-62.5 -120q0 -74 51.5 -120t166.5 -94q70 -29 116 -53.5t92 -61.5t69 -86t23 -110q0 -94 -53.5 -166t-143.5 -112v-8q101 -87 101 -201q0 -103 -55.5 -180t-143.5 -114 t-195 -37q-64 0 -130 18t-124.5 52.5t-95.5 93.5t-37 133zM321 591q0 -65 51.5 -112t147.5 -91q18 -8 95 -33q64 15 111.5 68.5t47.5 124.5q0 67 -51 115t-151 88q-54 21 -77 27q-66 -9 -120 -64.5t-54 -122.5z" />
<glyph unicode="&#xa8;" horiz-adv-x="1000" d="M376 1287q0 45 30.5 74t75.5 29q46 0 76.5 -29t30.5 -74q0 -43 -30.5 -72t-76.5 -29q-45 0 -75.5 29t-30.5 72zM734 1287q0 45 30 74t73 29q48 0 79 -28.5t31 -74.5q0 -44 -31 -72.5t-79 -28.5q-43 0 -73 29t-30 72z" />
<glyph unicode="&#xa9;" horiz-adv-x="1733" d="M203 631q0 40 5 88l11 103q29 267 230.5 439t492.5 172q156 0 290 -53.5t226 -145t144.5 -216.5t52.5 -266q0 -48 -4 -81l-11 -102q-30 -280 -233.5 -457t-498.5 -177q-208 0 -369.5 91.5t-248.5 249.5t-87 355zM324 622q0 -257 161 -413.5t420 -156.5q248 0 420 144 t197 381l11 107q3 31 3 55q0 166 -79 298t-215.5 204.5t-304.5 72.5q-243 0 -409.5 -145t-188.5 -360l-11 -106q-4 -33 -4 -81zM597 579q0 46 10 111l19 107q23 129 106 201t214 72q132 0 208.5 -69t76.5 -167v-12h-114v7q0 51 -46 93t-122 42q-83 0 -138.5 -53.5 t-71.5 -146.5l-14 -82q-8 -44 -8 -72q0 -102 46.5 -156.5t140.5 -54.5q64 0 107 24.5t53 65.5h120q-16 -90 -95.5 -145t-192.5 -55q-136 0 -217.5 79.5t-81.5 210.5z" />
<glyph unicode="&#xaa;" horiz-adv-x="713" d="M219 883q0 90 66 136t181 46h139l6 39q0 1 0.5 5t0.5 10q0 46 -29 72.5t-81 26.5q-39 0 -70 -15.5t-38 -45.5h-114q12 69 72.5 114t160.5 45q103 0 158.5 -51.5t55.5 -145.5q0 -17 -3 -35l-63 -359h-114l14 77h-7q-18 -35 -60 -60.5t-101 -25.5q-76 0 -125 44t-49 123z M338 892q0 -37 25.5 -59.5t70.5 -22.5q54 0 93.5 32t49.5 82l12 62h-130q-60 0 -90.5 -27t-30.5 -67z" />
<glyph unicode="&#xab;" horiz-adv-x="1300" d="M198 557l2 8l415 404h186l-420 -411l-1 -6l256 -397h-172zM660 557l2 8l415 404h186l-420 -411l-1 -6l256 -397h-172z" />
<glyph unicode="&#xac;" horiz-adv-x="1128" d="M124 480l23 129h949l-90 -509h-138l67 380h-811z" />
<glyph unicode="&#xad;" horiz-adv-x="866" d="M144 493l24 140h634l-25 -140h-633z" />
<glyph unicode="&#xae;" horiz-adv-x="1216" d="M219 888v5v4q3 225 136.5 362t356.5 137q212 0 348 -128.5t136 -342.5v-11v-11q-8 -225 -139.5 -357t-354.5 -132q-215 0 -349 127.5t-134 346.5zM312 886q0 -178 107.5 -279.5t281.5 -101.5q183 0 288.5 106t113.5 292v11v11q0 173 -109.5 276.5t-280.5 103.5 q-183 0 -292 -111.5t-109 -296.5v-5v-6zM494 658l93 515h180q75 0 115 -38t40 -107q0 -10 -1 -20q-5 -51 -37.5 -87.5t-81.5 -51.5l71 -211h-92l-60 199h-29h-76l-34 -199h-88zM628 927h85q108 0 121 83q2 14 2 22q0 28 -22.5 48t-65.5 20h-88z" />
<glyph unicode="&#xaf;" horiz-adv-x="1000" d="M313 1204l18 102h680l-18 -102h-680z" />
<glyph unicode="&#xb0;" horiz-adv-x="729" d="M213 1102q0 116 82 198t200 82q116 0 198 -82t82 -198q0 -117 -82 -199.5t-198 -82.5q-118 0 -200 82.5t-82 199.5zM336 1102q0 -64 47.5 -111.5t111.5 -47.5q66 0 112.5 47t46.5 112q0 66 -46.5 112.5t-112.5 46.5q-64 0 -111.5 -47t-47.5 -112z" />
<glyph unicode="&#xb1;" d="M52 127l23 129h949l-23 -129h-949zM137 659l23 129h410l49 281h127l-49 -281h412l-23 -129h-412l-52 -294h-127l52 294h-410z" />
<glyph unicode="&#xb2;" horiz-adv-x="690" d="M233 689l16 91l275 255q31 30 44.5 44.5t31.5 45.5t18 58q0 37 -25 61t-68 24q-46 0 -74 -28.5t-31 -70.5h-118q8 95 72.5 151t159.5 56q91 0 150.5 -51t59.5 -135q0 -63 -34.5 -113.5t-104.5 -115.5l-184 -166h288l-19 -106h-457z" />
<glyph unicode="&#xb3;" horiz-adv-x="697" d="M196 889h109q4 -46 36.5 -74t82.5 -28q49 0 82.5 26.5t33.5 76.5q0 86 -113 99q-14 2 -53 2l2 103q42 -1 55 -1q57 0 98.5 25t41.5 71q0 38 -27.5 60.5t-68.5 22.5q-40 0 -63.5 -20.5t-30.5 -50.5h-120q8 78 67.5 126.5t148.5 48.5q87 0 151 -46t64 -130 q0 -63 -36 -106.5t-87 -57.5q46 -19 72 -60t26 -96q0 -93 -70.5 -149.5t-179.5 -51.5q-99 4 -156 55t-64 128q-1 11 -1 27z" />
<glyph unicode="&#xb4;" horiz-adv-x="1000" d="M413 1207l295 356h177l-350 -356h-122z" />
<glyph unicode="&#xb6;" horiz-adv-x="1272" d="M284 937q0 137 70.5 235.5t184 145.5t253.5 47h176l-278 -1575h-157l127 717l-20 5q-44 11 -88 30t-94 54.5t-87 80.5t-62 113t-25 147zM848 -210l278 1575h157l-278 -1575h-157z" />
<glyph unicode="&#xb7;" horiz-adv-x="547" d="M208 737q0 59 39 98t94 39q59 0 98.5 -39t39.5 -98q0 -56 -39.5 -94.5t-98.5 -38.5q-55 0 -94 38.5t-39 94.5z" />
<glyph unicode="&#xb8;" horiz-adv-x="1000" d="M192 -456l17 100q63 -20 130 -20q109 0 109 75q0 76 -141 76h-50l9 79l56 164h121l-50 -155q86 -2 139 -42.5t53 -115.5q0 -89 -66.5 -139t-167.5 -50q-81 0 -159 28z" />
<glyph unicode="&#xb9;" horiz-adv-x="653" d="M284 1150l21 120l173 96h118l-119 -677h-118l96 550h-5z" />
<glyph unicode="&#xba;" horiz-adv-x="753" d="M239 1013q-24 -141 47 -224.5t196 -83.5q101 0 168.5 56.5t85.5 160.5l7 38l6 38q23 135 -47.5 221t-195.5 86q-99 0 -168 -58t-86 -158l-6 -38zM348 998l6 33l6 33q11 66 51 105.5t99 39.5q71 0 107.5 -56t21.5 -140l-6 -33l-6 -33q-12 -66 -50 -105.5t-100 -39.5 q-74 0 -109 55.5t-20 140.5z" />
<glyph unicode="&#xbb;" horiz-adv-x="1300" d="M115 155l420 411l1 6l-256 397h172l266 -402l-2 -8l-415 -404h-186zM577 155l420 411l1 6l-256 397h172l266 -402l-2 -8l-415 -404h-186z" />
<glyph unicode="&#xbc;" horiz-adv-x="1562" d="M178 0l556 683l556 683h150l-556 -683l-556 -683h-150zM254 1150l21 120l173 96h118l-119 -677h-118l96 550h-5zM854 142l15 95q21 32 43 62.5t51 67.5t46 59t54 67t48.5 58.5t56.5 67t51 60.5h175l-75 -441h91l-14 -96h-92l-25 -142h-118l24 142h-331zM999 238h201 l62 336h-7q-208 -263 -255 -330z" />
<glyph unicode="&#xbd;" horiz-adv-x="1562" d="M188 0l556 683l556 683h150l-556 -683l-556 -683h-150zM254 1150l21 120l173 96h118l-119 -677h-118l96 550h-5zM964 0l16 91l276 256q31 30 44.5 44.5t31.5 45.5t18 58q0 37 -25 61.5t-68 24.5q-46 0 -74 -28.5t-31 -71.5h-118q8 95 72.5 151.5t159.5 56.5 q91 0 150.5 -51.5t59.5 -135.5q0 -63 -34.5 -113.5t-104.5 -115.5l-184 -167h288l-19 -106h-458z" />
<glyph unicode="&#xbe;" horiz-adv-x="1479" d="M78 889h109q4 -46 36.5 -74t82.5 -28q49 0 82.5 26.5t33.5 76.5q0 86 -113 99q-14 2 -53 2l2 103q42 -1 55 -1q57 0 98.5 25t41.5 71q0 38 -27.5 60.5t-68.5 22.5q-40 0 -63.5 -20.5t-30.5 -50.5h-120q8 78 67.5 126.5t148.5 48.5q87 0 151 -46t64 -130q0 -63 -36 -106.5 t-87 -57.5q46 -19 72 -60t26 -96q0 -93 -70.5 -149.5t-179.5 -51.5q-99 4 -156 55t-64 128q-1 11 -1 27zM162 0l556 683l556 683h150l-556 -683l-556 -683h-150zM854 142l15 95q21 32 43 62.5t51 67.5t46 59t54 67t48.5 58.5t56.5 67t51 60.5h175l-75 -441h91l-14 -96h-92 l-25 -142h-118l24 142h-331zM999 238h201l62 336h-7q-208 -263 -255 -330z" />
<glyph unicode="&#xbf;" horiz-adv-x="1025" d="M48 12q0 56 16.5 105.5t39 83.5t61 68.5t68.5 54t75 46.5q98 58 134 93t48 106l14 77h154l-14 -79q-20 -112 -63.5 -168t-173.5 -133q-39 -23 -60 -36.5t-53 -39t-48.5 -48t-29.5 -55.5t-13 -70q0 -95 69.5 -148t171.5 -53q105 0 168 55.5t80 140.5h156q-10 -69 -39 -128 t-77 -105.5t-121.5 -72.5t-165.5 -26q-109 0 -197 35t-144 112t-56 185zM483 959q0 56 39.5 94.5t98.5 38.5q55 0 94 -38.5t39 -94.5q0 -59 -39 -98t-94 -39q-59 0 -98.5 39t-39.5 98z" />
<glyph unicode="&#xc0;" horiz-adv-x="1246" d="M-10 0l729 1366h170l247 -1366h-165l-69 422h-520l-218 -422h-174zM453 554h426l-100 613h-12zM471 1690h200l275 -190h-173z" />
<glyph unicode="&#xc1;" horiz-adv-x="1246" d="M-10 0l729 1366h170l247 -1366h-165l-69 422h-520l-218 -422h-174zM453 554h426l-100 613h-12zM684 1500l295 190h210l-326 -190h-179z" />
<glyph unicode="&#xc2;" horiz-adv-x="1246" d="M-10 0l729 1366h170l247 -1366h-165l-69 422h-520l-218 -422h-174zM453 554h426l-100 613h-12zM489 1483l297 233h172l199 -233h-162l-135 148h-11l-187 -148h-173z" />
<glyph unicode="&#xc3;" horiz-adv-x="1246" d="M-10 0l729 1366h170l247 -1366h-165l-69 422h-520l-218 -422h-174zM453 554h426l-100 613h-12zM510 1482q0 92 47.5 156t141.5 64q80 0 161 -78q4 -4 19.5 -20t21.5 -21t19.5 -11t27.5 -6q25 0 43 21t25.5 46t9.5 51h117q0 -83 -51.5 -152t-134.5 -69q-57 0 -93.5 18.5 t-72.5 54.5l-9.5 9.5l-10 10t-9.5 9t-11.5 9.5t-11 6.5t-12.5 6.5t-12 3.5t-14 1.5q-29 0 -46 -20t-21 -40t-6 -50h-118z" />
<glyph unicode="&#xc4;" horiz-adv-x="1246" d="M-10 0l729 1366h170l247 -1366h-165l-69 422h-520l-218 -422h-174zM453 554h426l-100 613h-12zM566 1589q0 44 29 71.5t73 27.5q43 0 72 -27.5t29 -71.5q0 -42 -29 -69.5t-72 -27.5q-44 0 -73 27.5t-29 69.5zM910 1589q0 43 28.5 71t69.5 28q46 0 75.5 -27.5t29.5 -71.5 q0 -42 -29.5 -69.5t-75.5 -27.5q-41 0 -69.5 27.5t-28.5 69.5z" />
<glyph unicode="&#xc5;" horiz-adv-x="1246" d="M-10 0l726 1360q-42 25 -66.5 68t-24.5 93q0 77 54.5 131t132.5 54q77 0 131 -54t54 -131q0 -55 -29 -100.5t-77 -68.5l245 -1352h-165l-69 422h-520l-218 -422h-174zM453 554h426l-100 613h-12zM707 1521q0 -43 31.5 -74t73.5 -31q43 0 74 31t31 74t-30.5 74t-74.5 31 q-42 0 -73.5 -31t-31.5 -74z" />
<glyph unicode="&#xc6;" horiz-adv-x="1826" d="M-40 0l1064 1366h845l-25 -143h-638l-80 -446h607l-23 -143h-609l-87 -491h643l-24 -143h-804l74 421h-428l-330 -421h-185zM569 554h358l112 593h-11z" />
<glyph unicode="&#xc7;" horiz-adv-x="1295" d="M180 495q0 105 9 151l49 252q47 242 197 369.5t359 127.5q110 0 202.5 -34t153.5 -91t95 -130t34 -151q0 -25 -2 -31h-156q0 18 -1 26q-5 45 -26.5 89t-60 83.5t-101.5 64t-142 24.5q-159 0 -257 -98t-136 -281l-41 -203q-14 -65 -14 -163t28.5 -172.5t79 -118.5 t113.5 -65.5t137 -21.5q140 0 225.5 68t107.5 169h161q-1 -16 -8 -46q-11 -47 -34 -92.5t-64.5 -90.5t-94.5 -79t-129 -56t-164 -23l-35 -109q86 -2 139 -42.5t53 -115.5q0 -89 -66.5 -139t-167.5 -50q-81 0 -159 28l17 100q63 -20 130 -20q109 0 109 75q0 76 -141 76h-50 l9 79l43 127q-85 14 -155.5 51.5t-126.5 99t-87.5 154.5t-31.5 209z" />
<glyph unicode="&#xc8;" horiz-adv-x="1133" d="M136 0l241 1366h799l-25 -143h-638l-80 -446h607l-23 -143h-609l-87 -491h643l-24 -143h-804zM432 1690h200l275 -190h-173z" />
<glyph unicode="&#xc9;" horiz-adv-x="1133" d="M136 0l241 1366h799l-25 -143h-638l-80 -446h607l-23 -143h-609l-87 -491h643l-24 -143h-804zM645 1500l295 190h210l-326 -190h-179z" />
<glyph unicode="&#xca;" horiz-adv-x="1133" d="M136 0l241 1366h799l-25 -143h-638l-80 -446h607l-23 -143h-609l-87 -491h643l-24 -143h-804zM450 1483l297 233h172l199 -233h-162l-135 148h-11l-187 -148h-173z" />
<glyph unicode="&#xcb;" horiz-adv-x="1133" d="M136 0l241 1366h799l-25 -143h-638l-80 -446h607l-23 -143h-609l-87 -491h643l-24 -143h-804zM527 1589q0 44 29 71.5t73 27.5q43 0 72 -27.5t29 -71.5q0 -42 -29 -69.5t-72 -27.5q-44 0 -73 27.5t-29 69.5zM871 1589q0 43 28.5 71t69.5 28q46 0 75.5 -27.5t29.5 -71.5 q0 -42 -29.5 -69.5t-75.5 -27.5q-41 0 -69.5 27.5t-28.5 69.5z" />
<glyph unicode="&#xcc;" horiz-adv-x="553" d="M130 1690h200l275 -190h-173zM136 0l241 1366h161l-241 -1366h-161z" />
<glyph unicode="&#xcd;" horiz-adv-x="553" d="M136 0l241 1366h161l-241 -1366h-161zM343 1500l295 190h210l-326 -190h-179z" />
<glyph unicode="&#xce;" horiz-adv-x="553" d="M136 0l241 1366h161l-241 -1366h-161zM148 1483l297 233h172l199 -233h-162l-135 148h-11l-187 -148h-173z" />
<glyph unicode="&#xcf;" horiz-adv-x="553" d="M136 0l241 1366h161l-241 -1366h-161zM225 1589q0 44 29 71.5t73 27.5q43 0 72 -27.5t29 -71.5q0 -42 -29 -69.5t-72 -27.5q-44 0 -73 27.5t-29 69.5zM569 1589q0 43 28.5 71t69.5 28q46 0 75.5 -27.5t29.5 -71.5q0 -42 -29.5 -69.5t-75.5 -27.5q-41 0 -69.5 27.5 t-28.5 69.5z" />
<glyph unicode="&#xd0;" horiz-adv-x="1439" d="M171 629l25 140h159l106 597h372q266 0 408 -138.5t142 -374.5q0 -87 -12 -156l-28 -155q-98 -542 -752 -542h-371l111 629h-160zM406 143h186q245 0 399.5 105t192.5 310l26 139q10 54 10 139q0 192 -108.5 289.5t-323.5 97.5h-190l-81 -454h315l-25 -140h-315z" />
<glyph unicode="&#xd1;" horiz-adv-x="1426" d="M136 0l241 1366h161l506 -1102h10l196 1102h161l-241 -1366h-159l-511 1099h-10l-193 -1099h-161zM615 1482q0 92 47.5 156t141.5 64q80 0 161 -78q4 -4 19.5 -20t21.5 -21t19.5 -11t27.5 -6q25 0 43 21t25.5 46t9.5 51h117q0 -83 -51.5 -152t-134.5 -69 q-57 0 -93.5 18.5t-72.5 54.5l-9.5 9.5l-10 10t-9.5 9t-11.5 9.5t-11 6.5t-12.5 6.5t-12 3.5t-14 1.5q-29 0 -46 -20t-21 -40t-6 -50h-118z" />
<glyph unicode="&#xd2;" horiz-adv-x="1384" d="M176 481q0 116 15 201l38 212q43 238 196.5 369.5t368.5 131.5q244 0 392 -143t148 -393q0 -85 -16 -169l-39 -213q-45 -245 -191 -375.5t-392 -130.5q-148 0 -264.5 58.5t-186 175.5t-69.5 276zM340 506q0 -178 102 -281t280 -103q162 0 263.5 100.5t136.5 297.5l38 213 q8 44 8 134q0 172 -102.5 274.5t-275.5 102.5q-155 0 -258.5 -92t-139.5 -287l-37 -198q-15 -82 -15 -161zM543 1690h200l275 -190h-173z" />
<glyph unicode="&#xd3;" horiz-adv-x="1384" d="M176 481q0 116 15 201l38 212q43 238 196.5 369.5t368.5 131.5q244 0 392 -143t148 -393q0 -85 -16 -169l-39 -213q-45 -245 -191 -375.5t-392 -130.5q-148 0 -264.5 58.5t-186 175.5t-69.5 276zM340 506q0 -178 102 -281t280 -103q162 0 263.5 100.5t136.5 297.5l38 213 q8 44 8 134q0 172 -102.5 274.5t-275.5 102.5q-155 0 -258.5 -92t-139.5 -287l-37 -198q-15 -82 -15 -161zM756 1500l295 190h210l-326 -190h-179z" />
<glyph unicode="&#xd4;" horiz-adv-x="1384" d="M176 481q0 116 15 201l38 212q43 238 196.5 369.5t368.5 131.5q244 0 392 -143t148 -393q0 -85 -16 -169l-39 -213q-45 -245 -191 -375.5t-392 -130.5q-148 0 -264.5 58.5t-186 175.5t-69.5 276zM340 506q0 -178 102 -281t280 -103q162 0 263.5 100.5t136.5 297.5l38 213 q8 44 8 134q0 172 -102.5 274.5t-275.5 102.5q-155 0 -258.5 -92t-139.5 -287l-37 -198q-15 -82 -15 -161zM561 1483l297 233h172l199 -233h-162l-135 148h-11l-187 -148h-173z" />
<glyph unicode="&#xd5;" horiz-adv-x="1384" d="M176 481q0 116 15 201l38 212q43 238 196.5 369.5t368.5 131.5q244 0 392 -143t148 -393q0 -85 -16 -169l-39 -213q-45 -245 -191 -375.5t-392 -130.5q-148 0 -264.5 58.5t-186 175.5t-69.5 276zM340 506q0 -178 102 -281t280 -103q162 0 263.5 100.5t136.5 297.5l38 213 q8 44 8 134q0 172 -102.5 274.5t-275.5 102.5q-155 0 -258.5 -92t-139.5 -287l-37 -198q-15 -82 -15 -161zM582 1482q0 92 47.5 156t141.5 64q80 0 161 -78q4 -4 19.5 -20t21.5 -21t19.5 -11t27.5 -6q25 0 43 21t25.5 46t9.5 51h117q0 -83 -51.5 -152t-134.5 -69 q-57 0 -93.5 18.5t-72.5 54.5l-9.5 9.5l-10 10t-9.5 9t-11.5 9.5t-11 6.5t-12.5 6.5t-12 3.5t-14 1.5q-29 0 -46 -20t-21 -40t-6 -50h-118z" />
<glyph unicode="&#xd6;" horiz-adv-x="1384" d="M176 481q0 116 15 201l38 212q43 238 196.5 369.5t368.5 131.5q244 0 392 -143t148 -393q0 -85 -16 -169l-39 -213q-45 -245 -191 -375.5t-392 -130.5q-148 0 -264.5 58.5t-186 175.5t-69.5 276zM340 506q0 -178 102 -281t280 -103q162 0 263.5 100.5t136.5 297.5l38 213 q8 44 8 134q0 172 -102.5 274.5t-275.5 102.5q-155 0 -258.5 -92t-139.5 -287l-37 -198q-15 -82 -15 -161zM638 1589q0 44 29 71.5t73 27.5q43 0 72 -27.5t29 -71.5q0 -42 -29 -69.5t-72 -27.5q-44 0 -73 27.5t-29 69.5zM982 1589q0 43 28.5 71t69.5 28q46 0 75.5 -27.5 t29.5 -71.5q0 -42 -29.5 -69.5t-75.5 -27.5q-41 0 -69.5 27.5t-28.5 69.5z" />
<glyph unicode="&#xd7;" d="M155 185l344 299l-258 315l95 84l259 -315l367 304l75 -91l-367 -304l259 -314l-95 -85l-259 315l-345 -300z" />
<glyph unicode="&#xd8;" horiz-adv-x="1384" d="M87 169l120 108q-35 91 -35 204q0 116 15 201l38 212q43 238 196.5 369.5t368.5 131.5q143 0 256.5 -51.5t184.5 -148.5l106 96l82 -88l-129 -116q40 -103 40 -228q0 -85 -16 -169l-39 -213q-45 -245 -191 -375.5t-392 -130.5q-135 0 -246 50.5t-180 145.5l-101 -91z M336 506q0 -58 10 -104l761 682q-48 77 -130.5 118.5t-190.5 41.5q-155 0 -258.5 -92t-139.5 -287l-37 -198q-15 -82 -15 -161zM393 281q99 -159 325 -159q162 0 263.5 100.5t136.5 297.5l38 213q8 44 8 134q0 46 -10 98z" />
<glyph unicode="&#xd9;" horiz-adv-x="1380" d="M202 411q0 65 14 142l143 813h165l-147 -830q-8 -40 -8 -101q0 -140 86 -226t234 -86q138 0 234 79.5t124 235.5l164 928h165l-166 -939q-41 -229 -179.5 -342.5t-342.5 -113.5q-215 0 -350.5 118t-135.5 322zM546 1690h200l275 -190h-173z" />
<glyph unicode="&#xda;" horiz-adv-x="1380" d="M202 411q0 65 14 142l143 813h165l-147 -830q-8 -40 -8 -101q0 -140 86 -226t234 -86q138 0 234 79.5t124 235.5l164 928h165l-166 -939q-41 -229 -179.5 -342.5t-342.5 -113.5q-215 0 -350.5 118t-135.5 322zM759 1500l295 190h210l-326 -190h-179z" />
<glyph unicode="&#xdb;" horiz-adv-x="1380" d="M202 411q0 65 14 142l143 813h165l-147 -830q-8 -40 -8 -101q0 -140 86 -226t234 -86q138 0 234 79.5t124 235.5l164 928h165l-166 -939q-41 -229 -179.5 -342.5t-342.5 -113.5q-215 0 -350.5 118t-135.5 322zM564 1483l297 233h172l199 -233h-162l-135 148h-11 l-187 -148h-173z" />
<glyph unicode="&#xdc;" horiz-adv-x="1380" d="M202 411q0 65 14 142l143 813h165l-147 -830q-8 -40 -8 -101q0 -140 86 -226t234 -86q138 0 234 79.5t124 235.5l164 928h165l-166 -939q-41 -229 -179.5 -342.5t-342.5 -113.5q-215 0 -350.5 118t-135.5 322zM641 1589q0 44 29 71.5t73 27.5q43 0 72 -27.5t29 -71.5 q0 -42 -29 -69.5t-72 -27.5q-44 0 -73 27.5t-29 69.5zM985 1589q0 43 28.5 71t69.5 28q46 0 75.5 -27.5t29.5 -71.5q0 -42 -29.5 -69.5t-75.5 -27.5q-41 0 -69.5 27.5t-28.5 69.5z" />
<glyph unicode="&#xdd;" horiz-adv-x="1131" d="M195 1366h170l258 -634h10l465 634h191l-599 -774l-104 -592h-161l104 591zM626 1500l295 190h210l-326 -190h-179z" />
<glyph unicode="&#xde;" horiz-adv-x="1191" d="M134 0l241 1365h158l-48 -274h273q187 0 289 -89.5t102 -235.5q0 -24 -5 -67q-22 -194 -155.5 -287.5t-386.5 -93.5h-253l-56 -318h-159zM373 455h250q96 0 165 18t109 52t60.5 75.5t27.5 96.5q5 32 5 59q0 197 -259 197h-270z" />
<glyph unicode="&#xdf;" horiz-adv-x="1259" d="M136 0l208 1171q23 131 127.5 206.5t259.5 75.5q181 0 303 -100t122 -268q0 -76 -29 -142.5t-75.5 -109.5t-99.5 -69.5t-104 -33.5l-1 -7q134 -23 218.5 -115t84.5 -255q0 -92 -34.5 -166.5t-93.5 -121.5t-134.5 -72.5t-159.5 -25.5q-77 0 -145 17t-106 36l25 132 q28 -17 91.5 -34t126.5 -17q70 0 130 26t101.5 87t41.5 148q0 139 -93 219t-226 80h-62l29 158h64q135 0 215.5 70t80.5 191q0 115 -78.5 176.5t-193.5 61.5q-94 0 -155 -44t-76 -131l-202 -1143h-160z" />
<glyph unicode="&#xe0;" horiz-adv-x="1105" d="M112 275q0 30 2 48q15 134 121.5 212t302.5 78h286l12 66q4 22 4 50q0 38 -12 72t-37 64.5t-72 48.5t-110 18q-94 0 -152.5 -37.5t-78.5 -94.5h-155q23 120 129 193t270 73q179 0 274 -90.5t95 -235.5q0 -61 -20 -169l-101 -571h-154l25 143h-11q-33 -64 -112 -112 t-189 -48q-135 0 -226 79t-91 213zM272 294q0 -75 52 -123t144 -48q113 0 199.5 67.5t106.5 170.5l25 127h-275q-124 0 -188 -55.5t-64 -138.5zM391 1565h182l188 -356h-130z" />
<glyph unicode="&#xe1;" horiz-adv-x="1105" d="M112 275q0 30 2 48q15 134 121.5 212t302.5 78h286l12 66q4 22 4 50q0 38 -12 72t-37 64.5t-72 48.5t-110 18q-94 0 -152.5 -37.5t-78.5 -94.5h-155q23 120 129 193t270 73q179 0 274 -90.5t95 -235.5q0 -61 -20 -169l-101 -571h-154l25 143h-11q-33 -64 -112 -112 t-189 -48q-135 0 -226 79t-91 213zM272 294q0 -75 52 -123t144 -48q113 0 199.5 67.5t106.5 170.5l25 127h-275q-124 0 -188 -55.5t-64 -138.5zM543 1209l295 356h177l-350 -356h-122z" />
<glyph unicode="&#xe2;" horiz-adv-x="1105" d="M112 275q0 30 2 48q15 134 121.5 212t302.5 78h286l12 66q4 22 4 50q0 38 -12 72t-37 64.5t-72 48.5t-110 18q-94 0 -152.5 -37.5t-78.5 -94.5h-155q23 120 129 193t270 73q179 0 274 -90.5t95 -235.5q0 -61 -20 -169l-101 -571h-154l25 143h-11q-33 -64 -112 -112 t-189 -48q-135 0 -226 79t-91 213zM272 294q0 -75 52 -123t144 -48q113 0 199.5 67.5t106.5 170.5l25 127h-275q-124 0 -188 -55.5t-64 -138.5zM364 1198l307 382h107l181 -382h-138l-111 273h-3l-200 -273h-143z" />
<glyph unicode="&#xe3;" horiz-adv-x="1105" d="M112 275q0 30 2 48q15 134 121.5 212t302.5 78h286l12 66q4 22 4 50q0 38 -12 72t-37 64.5t-72 48.5t-110 18q-94 0 -152.5 -37.5t-78.5 -94.5h-155q23 120 129 193t270 73q179 0 274 -90.5t95 -235.5q0 -61 -20 -169l-101 -571h-154l25 143h-11q-33 -64 -112 -112 t-189 -48q-135 0 -226 79t-91 213zM272 294q0 -75 52 -123t144 -48q113 0 199.5 67.5t106.5 170.5l25 127h-275q-124 0 -188 -55.5t-64 -138.5zM316 1184q11 116 67 181.5t142 65.5q34 0 61 -9.5t49.5 -31t33 -34.5t30.5 -42q31 -44 46 -53q14 -9 29 -9q36 0 58.5 38 t31.5 88h121q-6 -98 -67 -173.5t-150 -75.5q-50 0 -84.5 25.5t-63.5 68.5q-3 5 -13 20l-14 21t-13.5 16.5t-16.5 15t-17.5 8.5t-22.5 4q-21 0 -36.5 -10.5t-25 -31.5t-14.5 -38t-10 -44h-121z" />
<glyph unicode="&#xe4;" horiz-adv-x="1105" d="M112 275q0 30 2 48q15 134 121.5 212t302.5 78h286l12 66q4 22 4 50q0 38 -12 72t-37 64.5t-72 48.5t-110 18q-94 0 -152.5 -37.5t-78.5 -94.5h-155q23 120 129 193t270 73q179 0 274 -90.5t95 -235.5q0 -61 -20 -169l-101 -571h-154l25 143h-11q-33 -64 -112 -112 t-189 -48q-135 0 -226 79t-91 213zM272 294q0 -75 52 -123t144 -48q113 0 199.5 67.5t106.5 170.5l25 127h-275q-124 0 -188 -55.5t-64 -138.5zM392 1296q0 45 30.5 74t75.5 29q46 0 76.5 -29t30.5 -74q0 -43 -30.5 -72t-76.5 -29q-45 0 -75.5 29t-30.5 72zM750 1296 q0 45 30 74t73 29q48 0 79 -28.5t31 -74.5q0 -44 -31 -72.5t-79 -28.5q-43 0 -73 29t-30 72z" />
<glyph unicode="&#xe5;" horiz-adv-x="1105" d="M112 275q0 30 2 48q15 134 121.5 212t302.5 78h286l12 66q4 22 4 50q0 38 -12 72t-37 64.5t-72 48.5t-110 18q-94 0 -152.5 -37.5t-78.5 -94.5h-155q23 120 129 193t270 73q179 0 274 -90.5t95 -235.5q0 -61 -20 -169l-101 -571h-154l25 143h-11q-33 -64 -112 -112 t-189 -48q-135 0 -226 79t-91 213zM272 294q0 -75 52 -123t144 -48q113 0 199.5 67.5t106.5 170.5l25 127h-275q-124 0 -188 -55.5t-64 -138.5zM514 1414q0 77 54.5 131t132.5 54q77 0 131 -54t54 -131t-54.5 -132t-130.5 -55q-78 0 -132.5 55t-54.5 132zM596 1414 q0 -43 31.5 -74t73.5 -31q43 0 74 31t31 74q0 44 -31 74.5t-74 30.5q-42 0 -73.5 -31t-31.5 -74z" />
<glyph unicode="&#xe6;" horiz-adv-x="1747" d="M112 282q0 159 112 245t317 86h283l13 72q3 24 3 47q0 36 -12 69.5t-37 64t-72.5 48.5t-110.5 18q-94 0 -152 -37.5t-78 -94.5h-155q23 120 129 193t268 73q229 0 323 -147q130 147 353 147q78 0 143 -20t106.5 -53.5t73 -78t43.5 -93.5t17 -99.5t-6 -96.5l-25 -140h-692 q-11 -62 -11 -92q0 -53 14 -99.5t43 -85.5t81 -62t121 -23q95 0 159 39.5t82 95.5h159q-19 -105 -132.5 -190t-272.5 -85q-127 0 -220 60.5t-135 174.5q-125 -235 -393 -235q-160 0 -249.5 78t-89.5 221zM272 291q0 -74 51.5 -121t144.5 -47q113 0 199.5 67.5t106.5 170.5 l25 127h-275q-125 0 -188.5 -57t-63.5 -140zM978 612h541l3 16q24 128 -37.5 216t-193.5 88q-107 0 -189.5 -62.5t-108.5 -185.5l-7 -31.5t-4 -20t-2 -11t-1.5 -6.5t-0.5 -3z" />
<glyph unicode="&#xe7;" horiz-adv-x="1061" d="M140 387q0 68 14 152l26 149q32 183 150 280.5t296 97.5q181 0 287 -96t106 -232v-10h-149v10q0 72 -66 133t-178 61q-113 0 -192.5 -74.5t-103.5 -211.5l-21 -118q-11 -59 -11 -107q0 -142 67 -220t196 -78q93 0 154.5 39t76.5 98h162q-22 -125 -132.5 -201t-267.5 -76 h-17l-39 -120q86 -2 139 -42.5t53 -115.5q0 -89 -66.5 -139t-167.5 -50q-81 0 -159 28l17 100q63 -20 130 -20q109 0 109 75q0 76 -141 76h-50l9 79l50 146q-132 36 -206.5 137.5t-74.5 249.5z" />
<glyph unicode="&#xe8;" horiz-adv-x="1094" d="M140 378q0 71 17 163l28 154q31 174 154 272.5t303 98.5q78 0 143 -20t106.5 -53.5t73 -78t43.5 -93.5t17 -99.5t-6 -96.5l-25 -140h-693q-10 -36 -10 -92q0 -53 14 -99.5t43 -85.5t81 -62t121 -23q95 0 159 39.5t82 95.5h159q-20 -107 -133 -191t-278 -84 q-178 0 -288.5 103.5t-110.5 291.5zM327 612h538l3 16q25 129 -37.5 216.5t-194.5 87.5q-105 0 -186.5 -62.5t-107.5 -185.5zM420 1565h182l188 -356h-130z" />
<glyph unicode="&#xe9;" horiz-adv-x="1094" d="M140 378q0 71 17 163l28 154q31 174 154 272.5t303 98.5q78 0 143 -20t106.5 -53.5t73 -78t43.5 -93.5t17 -99.5t-6 -96.5l-25 -140h-693q-10 -36 -10 -92q0 -53 14 -99.5t43 -85.5t81 -62t121 -23q95 0 159 39.5t82 95.5h159q-20 -107 -133 -191t-278 -84 q-178 0 -288.5 103.5t-110.5 291.5zM327 612h538l3 16q25 129 -37.5 216.5t-194.5 87.5q-105 0 -186.5 -62.5t-107.5 -185.5zM572 1209l295 356h177l-350 -356h-122z" />
<glyph unicode="&#xea;" horiz-adv-x="1094" d="M140 378q0 71 17 163l28 154q31 174 154 272.5t303 98.5q78 0 143 -20t106.5 -53.5t73 -78t43.5 -93.5t17 -99.5t-6 -96.5l-25 -140h-693q-10 -36 -10 -92q0 -53 14 -99.5t43 -85.5t81 -62t121 -23q95 0 159 39.5t82 95.5h159q-20 -107 -133 -191t-278 -84 q-178 0 -288.5 103.5t-110.5 291.5zM327 612h538l3 16q25 129 -37.5 216.5t-194.5 87.5q-105 0 -186.5 -62.5t-107.5 -185.5zM393 1198l307 382h107l181 -382h-138l-111 273h-3l-200 -273h-143z" />
<glyph unicode="&#xeb;" horiz-adv-x="1094" d="M140 378q0 71 17 163l28 154q31 174 154 272.5t303 98.5q78 0 143 -20t106.5 -53.5t73 -78t43.5 -93.5t17 -99.5t-6 -96.5l-25 -140h-693q-10 -36 -10 -92q0 -53 14 -99.5t43 -85.5t81 -62t121 -23q95 0 159 39.5t82 95.5h159q-20 -107 -133 -191t-278 -84 q-178 0 -288.5 103.5t-110.5 291.5zM327 612h538l3 16q25 129 -37.5 216.5t-194.5 87.5q-105 0 -186.5 -62.5t-107.5 -185.5zM421 1296q0 45 30.5 74t75.5 29q46 0 76.5 -29t30.5 -74q0 -43 -30.5 -72t-76.5 -29q-45 0 -75.5 29t-30.5 72zM779 1296q0 45 30 74t73 29 q48 0 79 -28.5t31 -74.5q0 -44 -31 -72.5t-79 -28.5q-43 0 -73 29t-30 72z" />
<glyph unicode="&#xec;" horiz-adv-x="581" d="M138 0l186 1049h159l-186 -1049h-159zM158 1565h182l188 -356h-130z" />
<glyph unicode="&#xed;" horiz-adv-x="581" d="M138 0l186 1049h159l-186 -1049h-159zM310 1209l295 356h177l-350 -356h-122z" />
<glyph unicode="&#xee;" horiz-adv-x="581" d="M131 1198l307 382h107l181 -382h-138l-111 273h-3l-200 -273h-143zM138 0l186 1049h159l-186 -1049h-159z" />
<glyph unicode="&#xef;" horiz-adv-x="581" d="M138 0l186 1049h159l-186 -1049h-159zM159 1296q0 45 30.5 74t75.5 29q46 0 76.5 -29t30.5 -74q0 -43 -30.5 -72t-76.5 -29q-45 0 -75.5 29t-30.5 72zM517 1296q0 45 30 74t73 29q48 0 79 -28.5t31 -74.5q0 -44 -31 -72.5t-79 -28.5q-43 0 -73 29t-30 72z" />
<glyph unicode="&#xf0;" horiz-adv-x="1189" d="M140 409q0 57 10 114l18 107q30 180 153 283.5t292 103.5q222 0 316 -182l7 -1l2 66q2 66 -20.5 146t-60.5 150l-293 -51l-12 99l248 42q-70 98 -157 173l110 95q106 -82 203 -242l252 43l18 -94l-220 -38q78 -167 78 -369q1 -79 -13 -159l-58 -329q-33 -187 -153.5 -288 t-292.5 -101q-188 0 -307.5 116t-119.5 316zM296 420q0 -137 71.5 -218.5t197.5 -81.5q120 0 197 76t101 215l15 86q9 51 9 95q0 136 -73 210t-192 74q-122 0 -203 -78.5t-103 -212.5l-12 -73q-8 -51 -8 -92z" />
<glyph unicode="&#xf1;" horiz-adv-x="1192" d="M120 0l185 1049h156l-32 -174h12q91 191 314 191q83 0 147 -27.5t101 -74.5t55.5 -104.5t18.5 -122.5q0 -59 -20 -171l-100 -566h-159l102 576q14 84 14 131q0 99 -49.5 162t-157.5 63q-89 0 -158.5 -46.5t-108 -117.5t-54.5 -161l-107 -607h-159zM405 1184 q11 116 67 181.5t142 65.5q34 0 61 -9.5t49.5 -31t33 -34.5t30.5 -42q31 -44 46 -53q14 -9 29 -9q36 0 58.5 38t31.5 88h121q-6 -98 -67 -173.5t-150 -75.5q-50 0 -84.5 25.5t-63.5 68.5q-3 5 -13 20l-14 21t-13.5 16.5t-16.5 15t-17.5 8.5t-22.5 4q-21 0 -36.5 -10.5 t-25 -31.5t-14.5 -38t-10 -44h-121z" />
<glyph unicode="&#xf2;" horiz-adv-x="1132" d="M140 384q0 86 12 150l24 141q32 182 153.5 286.5t292.5 104.5q193 0 311 -114t118 -307q0 -57 -12 -125l-26 -142q-35 -188 -150 -291.5t-310 -103.5q-179 0 -296 108.5t-117 292.5zM295 410q0 -131 74.5 -210t203.5 -79q116 0 191 77t100 220l23 133q5 31 5 94 q0 126 -74.5 204.5t-200.5 78.5q-111 0 -187.5 -70.5t-101.5 -212.5l-22 -123q-11 -60 -11 -112zM434 1565h182l188 -356h-130z" />
<glyph unicode="&#xf3;" horiz-adv-x="1132" d="M140 384q0 86 12 150l24 141q32 182 153.5 286.5t292.5 104.5q193 0 311 -114t118 -307q0 -57 -12 -125l-26 -142q-35 -188 -150 -291.5t-310 -103.5q-179 0 -296 108.5t-117 292.5zM295 410q0 -131 74.5 -210t203.5 -79q116 0 191 77t100 220l23 133q5 31 5 94 q0 126 -74.5 204.5t-200.5 78.5q-111 0 -187.5 -70.5t-101.5 -212.5l-22 -123q-11 -60 -11 -112zM586 1209l295 356h177l-350 -356h-122z" />
<glyph unicode="&#xf4;" horiz-adv-x="1132" d="M140 384q0 86 12 150l24 141q32 182 153.5 286.5t292.5 104.5q193 0 311 -114t118 -307q0 -57 -12 -125l-26 -142q-35 -188 -150 -291.5t-310 -103.5q-179 0 -296 108.5t-117 292.5zM295 410q0 -131 74.5 -210t203.5 -79q116 0 191 77t100 220l23 133q5 31 5 94 q0 126 -74.5 204.5t-200.5 78.5q-111 0 -187.5 -70.5t-101.5 -212.5l-22 -123q-11 -60 -11 -112zM407 1198l307 382h107l181 -382h-138l-111 273h-3l-200 -273h-143z" />
<glyph unicode="&#xf5;" horiz-adv-x="1132" d="M140 384q0 86 12 150l24 141q32 182 153.5 286.5t292.5 104.5q193 0 311 -114t118 -307q0 -57 -12 -125l-26 -142q-35 -188 -150 -291.5t-310 -103.5q-179 0 -296 108.5t-117 292.5zM295 410q0 -131 74.5 -210t203.5 -79q116 0 191 77t100 220l23 133q5 31 5 94 q0 126 -74.5 204.5t-200.5 78.5q-111 0 -187.5 -70.5t-101.5 -212.5l-22 -123q-11 -60 -11 -112zM359 1184q11 116 67 181.5t142 65.5q34 0 61 -9.5t49.5 -31t33 -34.5t30.5 -42q31 -44 46 -53q14 -9 29 -9q36 0 58.5 38t31.5 88h121q-6 -98 -67 -173.5t-150 -75.5 q-50 0 -84.5 25.5t-63.5 68.5q-3 5 -13 20l-14 21t-13.5 16.5t-16.5 15t-17.5 8.5t-22.5 4q-21 0 -36.5 -10.5t-25 -31.5t-14.5 -38t-10 -44h-121z" />
<glyph unicode="&#xf6;" horiz-adv-x="1132" d="M140 384q0 86 12 150l24 141q32 182 153.5 286.5t292.5 104.5q193 0 311 -114t118 -307q0 -57 -12 -125l-26 -142q-35 -188 -150 -291.5t-310 -103.5q-179 0 -296 108.5t-117 292.5zM295 410q0 -131 74.5 -210t203.5 -79q116 0 191 77t100 220l23 133q5 31 5 94 q0 126 -74.5 204.5t-200.5 78.5q-111 0 -187.5 -70.5t-101.5 -212.5l-22 -123q-11 -60 -11 -112zM435 1296q0 45 30.5 74t75.5 29q46 0 76.5 -29t30.5 -74q0 -43 -30.5 -72t-76.5 -29q-45 0 -75.5 29t-30.5 72zM793 1296q0 45 30 74t73 29q48 0 79 -28.5t31 -74.5 q0 -44 -31 -72.5t-79 -28.5q-43 0 -73 29t-30 72z" />
<glyph unicode="&#xf7;" horiz-adv-x="1150" d="M125 480l23 129h949l-23 -129h-949zM428 167q0 55 36.5 92t88.5 37q56 0 93 -37t37 -92q0 -53 -37.5 -89t-92.5 -36q-52 0 -88.5 36t-36.5 89zM523 932q0 55 36.5 92t88.5 37q56 0 93 -37t37 -92q0 -53 -37.5 -89t-92.5 -36q-52 0 -88.5 36t-36.5 89z" />
<glyph unicode="&#xf8;" horiz-adv-x="1132" d="M36 101l132 118q-30 76 -30 165q0 86 12 150l24 141q32 182 153.5 286.5t292.5 104.5q108 0 195 -37.5t144 -107.5l119 106l82 -94l-139 -123q28 -76 28 -165q0 -57 -12 -125l-26 -142q-35 -188 -150 -291.5t-310 -103.5q-202 0 -318 130l-120 -106zM293 410q0 -42 7 -74 l541 481q-74 111 -226 111q-111 0 -187.5 -70.5t-101.5 -212.5l-22 -123q-11 -60 -11 -112zM352 218q75 -97 219 -97q116 0 191 77t100 220l23 133q5 31 5 94q0 23 -3 46z" />
<glyph unicode="&#xf9;" horiz-adv-x="1178" d="M164 311q0 70 21 179l103 559h158l-103 -570q-15 -86 -15 -141q0 -99 55 -156t165 -57q131 0 211 91t105 232l105 601h153l-184 -1049h-150l32 181h-13q-40 -89 -120.5 -143.5t-190.5 -54.5q-158 0 -245 93.5t-87 234.5zM463 1565h182l188 -356h-130z" />
<glyph unicode="&#xfa;" horiz-adv-x="1178" d="M164 311q0 70 21 179l103 559h158l-103 -570q-15 -86 -15 -141q0 -99 55 -156t165 -57q131 0 211 91t105 232l105 601h153l-184 -1049h-150l32 181h-13q-40 -89 -120.5 -143.5t-190.5 -54.5q-158 0 -245 93.5t-87 234.5zM615 1209l295 356h177l-350 -356h-122z" />
<glyph unicode="&#xfb;" horiz-adv-x="1178" d="M164 311q0 70 21 179l103 559h158l-103 -570q-15 -86 -15 -141q0 -99 55 -156t165 -57q131 0 211 91t105 232l105 601h153l-184 -1049h-150l32 181h-13q-40 -89 -120.5 -143.5t-190.5 -54.5q-158 0 -245 93.5t-87 234.5zM436 1198l307 382h107l181 -382h-138l-111 273h-3 l-200 -273h-143z" />
<glyph unicode="&#xfc;" horiz-adv-x="1178" d="M164 311q0 70 21 179l103 559h158l-103 -570q-15 -86 -15 -141q0 -99 55 -156t165 -57q131 0 211 91t105 232l105 601h153l-184 -1049h-150l32 181h-13q-40 -89 -120.5 -143.5t-190.5 -54.5q-158 0 -245 93.5t-87 234.5zM464 1296q0 45 30.5 74t75.5 29q46 0 76.5 -29 t30.5 -74q0 -43 -30.5 -72t-76.5 -29q-45 0 -75.5 29t-30.5 72zM822 1296q0 45 30 74t73 29q48 0 79 -28.5t31 -74.5q0 -44 -31 -72.5t-79 -28.5q-43 0 -73 29t-30 72z" />
<glyph unicode="&#xfd;" horiz-adv-x="1041" d="M22 -337l31 129q35 -9 76 -9q87 0 135.5 44.5t89.5 135.5l24 53l-202 1033h170l140 -858h11l415 858h171l-540 -1043l-43 -83q-41 -79 -72 -124t-76 -82t-103.5 -51.5t-143.5 -14.5q-44 0 -83 12zM548 1209l295 356h177l-350 -356h-122z" />
<glyph unicode="&#xfe;" horiz-adv-x="1189" d="M54 -367l318 1804h151l-95 -552h11q87 181 304 181q166 0 266 -106t100 -296q0 -63 -8 -109l-36 -202q-28 -158 -140 -264t-278 -106q-72 0 -132 21.5t-99 56.5t-63.5 72.5t-34.5 77.5h-6l-99 -578h-159zM358 428q0 -75 24.5 -134t64.5 -94.5t88 -54t99 -18.5 q111 0 190 81t100 200l28 158q4 24 4 69q0 146 -68 222t-188 76q-128 0 -209.5 -82.5t-103.5 -222.5l-24 -153q-5 -25 -5 -47z" />
<glyph unicode="&#xff;" horiz-adv-x="1041" d="M22 -337l31 129q35 -9 76 -9q87 0 135.5 44.5t89.5 135.5l24 53l-202 1033h170l140 -858h11l415 858h171l-540 -1043l-43 -83q-41 -79 -72 -124t-76 -82t-103.5 -51.5t-143.5 -14.5q-44 0 -83 12zM397 1296q0 45 30.5 74t75.5 29q46 0 76.5 -29t30.5 -74q0 -43 -30.5 -72 t-76.5 -29q-45 0 -75.5 29t-30.5 72zM755 1296q0 45 30 74t73 29q48 0 79 -28.5t31 -74.5q0 -44 -31 -72.5t-79 -28.5q-43 0 -73 29t-30 72z" />
<glyph unicode="&#x152;" horiz-adv-x="2028" d="M176 496q0 101 15 186l38 212q43 238 196 369.5t372 131.5q157 0 273.5 -68t166.5 -190l40 228h799l-26 -145h-640l-79 -450h604l-25 -144h-604l-85 -481h640l-26 -145h-799l24 131q-119 -160 -380 -160q-111 0 -202 32.5t-159 96.5t-105.5 165t-37.5 231zM341 509 q0 -187 100.5 -287t274.5 -100q344 0 411 398l36 214q8 48 8 113q0 173 -101.5 285t-276.5 112q-156 0 -261 -96.5t-140 -282.5l-37 -198q-14 -76 -14 -158z" />
<glyph unicode="&#x153;" horiz-adv-x="1825" d="M139 392q0 70 12 142l24 141q31 180 152 285.5t294 105.5q81 0 151 -23.5t128 -76.5t88 -131q118 231 384 231q67 0 124.5 -15.5t97.5 -41.5t72.5 -61.5t50 -76t29 -83t10.5 -84t-6 -79.5l-25 -140h-693l-5 -23q-5 -24 -5 -63q0 -56 14 -103.5t43 -87.5t81 -62.5 t121 -22.5q95 0 159 39.5t82 95.5h159q-19 -106 -132.5 -190.5t-275.5 -84.5q-124 0 -215 56.5t-133 167.5q-50 -108 -147.5 -166t-226.5 -58q-179 0 -295.5 108t-116.5 301zM294 416q0 -134 73.5 -214.5t200.5 -80.5q120 0 195 76.5t100 220.5l23 133q5 31 5 82 q0 135 -73.5 215t-199.5 80q-113 0 -189.5 -70t-101.5 -213l-22 -123q-11 -60 -11 -106zM1058 612h538l3 16q24 128 -37.5 216t-193.5 88q-107 0 -188 -62.5t-107 -185.5z" />
<glyph unicode="&#x178;" horiz-adv-x="1131" d="M195 1366h170l258 -634h10l465 634h191l-599 -774l-104 -592h-161l104 591zM508 1589q0 44 29 71.5t73 27.5q43 0 72 -27.5t29 -71.5q0 -42 -29 -69.5t-72 -27.5q-44 0 -73 27.5t-29 69.5zM852 1589q0 43 28.5 71t69.5 28q46 0 75.5 -27.5t29.5 -71.5q0 -42 -29.5 -69.5 t-75.5 -27.5q-41 0 -69.5 27.5t-28.5 69.5z" />
<glyph unicode="&#x2c6;" horiz-adv-x="1000" d="M353 1185l307 382h107l181 -382h-138l-111 273h-3l-200 -273h-143z" />
<glyph unicode="&#x2dc;" horiz-adv-x="1000" d="M337 1211q11 116 67 181.5t142 65.5q34 0 61 -9.5t49.5 -31t33 -34.5t30.5 -42q31 -44 46 -53q14 -9 29 -9q36 0 58.5 38t31.5 88h121q-6 -98 -67 -173.5t-150 -75.5q-50 0 -84.5 25.5t-63.5 68.5q-3 5 -13 20l-14 21t-13.5 16.5t-16.5 15t-17.5 8.5t-22.5 4 q-21 0 -36.5 -10.5t-25 -31.5t-14.5 -38t-10 -44h-121z" />
<glyph unicode="&#x2000;" horiz-adv-x="858" />
<glyph unicode="&#x2001;" horiz-adv-x="1716" />
<glyph unicode="&#x2002;" horiz-adv-x="858" />
<glyph unicode="&#x2003;" horiz-adv-x="1716" />
<glyph unicode="&#x2004;" horiz-adv-x="572" />
<glyph unicode="&#x2005;" horiz-adv-x="429" />
<glyph unicode="&#x2006;" horiz-adv-x="286" />
<glyph unicode="&#x2007;" horiz-adv-x="286" />
<glyph unicode="&#x2008;" horiz-adv-x="214" />
<glyph unicode="&#x2009;" horiz-adv-x="343" />
<glyph unicode="&#x200a;" horiz-adv-x="95" />
<glyph unicode="&#x2010;" horiz-adv-x="866" d="M144 493l24 140h634l-25 -140h-633z" />
<glyph unicode="&#x2011;" horiz-adv-x="866" d="M144 493l24 140h634l-25 -140h-633z" />
<glyph unicode="&#x2012;" horiz-adv-x="866" d="M144 493l24 140h634l-25 -140h-633z" />
<glyph unicode="&#x2013;" horiz-adv-x="1192" d="M27 493l25 140h1191l-24 -140h-1192z" />
<glyph unicode="&#x2014;" horiz-adv-x="2048" d="M27 493l25 140h2048l-25 -140h-2048z" />
<glyph unicode="&#x2018;" horiz-adv-x="649" d="M250 824l282 541h133l-220 -541h-195z" />
<glyph unicode="&#x2019;" horiz-adv-x="649" d="M250 824l220 541h195l-282 -541h-133z" />
<glyph unicode="&#x201a;" horiz-adv-x="649" d="M28 -434l220 541h195l-282 -541h-133z" />
<glyph unicode="&#x201c;" horiz-adv-x="1009" d="M250 824l219 541h145l-180 -541h-184zM666 824l219 541h140l-174 -541h-185z" />
<glyph unicode="&#x201d;" horiz-adv-x="1009" d="M250 824l174 541h185l-219 -541h-140zM661 824l180 541h184l-219 -541h-145z" />
<glyph unicode="&#x201e;" horiz-adv-x="1009" d="M28 -434l174 541h185l-219 -541h-140zM439 -434l180 541h184l-219 -541h-145z" />
<glyph unicode="&#x2022;" horiz-adv-x="983" d="M239 599q0 123 87 210t209 87t209.5 -87t87.5 -210q0 -122 -87.5 -209t-209.5 -87t-209 87t-87 209z" />
<glyph unicode="&#x2026;" horiz-adv-x="1483" d="M99 116q0 59 39 98t94 39q59 0 98.5 -39t39.5 -98q0 -56 -39.5 -94.5t-98.5 -38.5q-55 0 -94 38.5t-39 94.5zM572 116q0 59 39 98t94 39q59 0 98.5 -39t39.5 -98q0 -56 -39.5 -94.5t-98.5 -38.5q-55 0 -94 38.5t-39 94.5zM1045 116q0 59 39 98t94 39q59 0 98.5 -39 t39.5 -98q0 -56 -39.5 -94.5t-98.5 -38.5q-55 0 -94 38.5t-39 94.5z" />
<glyph unicode="&#x202f;" horiz-adv-x="343" />
<glyph unicode="&#x2039;" horiz-adv-x="853" d="M198 557l2 8l415 404h186l-420 -411l-1 -6l256 -397h-172z" />
<glyph unicode="&#x203a;" horiz-adv-x="853" d="M131 155l399 410l1 6l-257 398h175l272 -404l-1 -8l-406 -402h-183z" />
<glyph unicode="&#x205f;" horiz-adv-x="429" />
<glyph unicode="&#x20ac;" d="M42 486l22 126h153q5 74 18 164h-142l22 126h142q55 245 176.5 369t325.5 124q107 0 192 -34t136 -91.5t77.5 -129t26.5 -151.5q0 -25 -2 -31h-156q0 18 -1 26q-25 261 -279 261q-41 0 -75.5 -7t-74.5 -29t-71.5 -58.5t-61.5 -99.5t-51 -149h350l-22 -126h-351 q-10 -66 -16 -164h338l-22 -126h-319q2 -193 66.5 -278.5t214.5 -85.5q71 0 123 17.5t84 52t50 74t30 93.5h161q-7 -41 -8 -46q-12 -50 -30.5 -94t-53.5 -91t-81 -80t-117 -54.5t-157 -21.5q-100 0 -179.5 28.5t-140 88t-93.5 160t-33 236.5v1h-171z" />
<glyph unicode="&#x2122;" horiz-adv-x="1711" d="M274 1264l17 101h604l-17 -101h-245l-105 -589h-118l105 589h-241zM916 675l122 690h118l163 -490h9l331 490h123l-122 -690h-103l86 484h-10l-299 -431h-72l-147 431h-9l-86 -484h-104z" />
<glyph unicode="&#x25fc;" horiz-adv-x="1050" d="M0 0v1050h1050v-1050h-1050z" />
<glyph unicode="&#xfb01;" horiz-adv-x="1324" d="M165 905l23 130h171l10 61q27 165 115.5 246.5t247.5 81.5q59 0 114 -11l-23 -128q-31 7 -91 7q-93 0 -139.5 -44.5t-62.5 -137.5l-13 -75h241l-24 -130h-241l-159 -905h-159l160 905h-170zM909 0l185 1049h159l-185 -1049h-159zM1094 1371q0 51 34 85t83 34 q52 0 86 -33.5t34 -85.5q0 -50 -34 -83.5t-86 -33.5q-49 0 -83 33.5t-34 83.5z" />
<glyph unicode="&#xfb02;" horiz-adv-x="1331" d="M165 905l23 130h171l10 61q27 165 115.5 246.5t247.5 81.5q59 0 114 -11l-23 -128q-31 7 -91 7q-93 0 -139.5 -44.5t-62.5 -137.5l-13 -75h241l-24 -130h-241l-159 -905h-159l160 905h-170zM916 0l251 1418h159l-251 -1418h-159z" />
</font>
</defs>
</svg>
