<?xml version="1.0" standalone="no"?>
<!DOCTYPE svg PUBLIC "-//W3C//DTD SVG 1.1//EN" "http://www.w3.org/Graphics/SVG/1.1/DTD/svg11.dtd" >
<svg xmlns="http://www.w3.org/2000/svg">
<metadata></metadata>
<defs>
<font id="san_francisco_textregular" horiz-adv-x="1128" >
<font-face units-per-em="2048" ascent="1638" descent="-410" />
<missing-glyph horiz-adv-x="465" />
<glyph horiz-adv-x="0" />
<glyph unicode="&#xd;" horiz-adv-x="0" />
<glyph unicode=" "  horiz-adv-x="465" />
<glyph unicode="&#x09;" horiz-adv-x="465" />
<glyph unicode="&#xa0;" horiz-adv-x="465" />
<glyph unicode="!" horiz-adv-x="564" d="M146 116q0 59 39 98t94 39q59 0 98.5 -39t39.5 -98q0 -56 -39.5 -94.5t-98.5 -38.5q-55 0 -94 38.5t-39 94.5zM195 1365h179l-20 -873h-139z" />
<glyph unicode="&#x22;" horiz-adv-x="831" d="M140 1365h177l-25 -488h-127zM514 1365h177l-25 -488h-127z" />
<glyph unicode="#" horiz-adv-x="1238" d="M87 393l27 128h207l68 334h-195l26 127h196l77 383h129l-78 -383h297l78 383h127l-78 -383h220l-26 -127h-220l-69 -334h207l-26 -128h-208l-79 -393h-128l80 393h-297l-80 -393h-128l79 393h-206zM448 521h297l69 334h-297z" />
<glyph unicode="$" d="M83 372h154q7 -95 74.5 -158t189.5 -78v509l-74 20q-62 16 -114 42t-97.5 66.5t-71.5 101t-26 135.5q0 164 106.5 259t276.5 112v132h128v-131q166 -15 276.5 -111t115.5 -254h-152q-3 89 -67 151t-173 75v-479l79 -20q167 -45 251.5 -128.5t84.5 -233.5q0 -117 -56 -202 t-147.5 -128.5t-211.5 -52.5v-128h-128v127q-200 15 -308 120.5t-110 253.5zM269 1021q0 -136 171 -202q35 -13 61 -20v444q-105 -13 -168.5 -70t-63.5 -152zM629 134q120 11 191.5 72.5t71.5 165.5q0 84 -50.5 138.5t-178.5 93.5q-22 6 -34 9v-479z" />
<glyph unicode="%" horiz-adv-x="1453" d="M50 1017v26q0 141 74 237t201 96t201.5 -96t74.5 -240v-26q0 -143 -75 -239.5t-203 -96.5q-127 0 -200 96.5t-73 242.5zM133 0l520 683l519 682h143l-519 -682l-520 -683h-143zM170 1027q0 -106 40.5 -172t114.5 -66q73 0 114.5 65t41.5 170v7q0 105 -40 170t-115 65 q-76 0 -116 -65.5t-40 -166.5v-7zM852 330v26q0 141 74 237t201 96t201.5 -96t74.5 -240v-26q0 -143 -75 -239.5t-203 -96.5q-127 0 -200 96.5t-73 242.5zM972 340q0 -106 40.5 -172t114.5 -66q73 0 114.5 65t41.5 170v7q0 105 -40 170t-115 65q-76 0 -116 -65.5t-40 -166.5 v-7z" />
<glyph unicode="&#x26;" horiz-adv-x="1345" d="M112 360q0 127 70.5 217.5t198.5 160.5q5 3 22 11.5l27 13.5q-81 86 -124.5 157t-43.5 157q0 126 95 213t244 87q147 0 244 -86t97 -218q0 -60 -21.5 -111t-65 -93t-90.5 -73.5t-115 -67.5l341 -372q65 123 65 386v37h150v-36q0 -323 -110 -494l234 -249h-204l-126 136 q-98 -86 -212 -124t-222 -38q-193 0 -323.5 105t-130.5 281zM271 370q0 -85 45 -146t113 -88t150 -27q87 0 176 32t151 97l-388 428q-38 -19 -45 -23q-100 -55 -151 -118.5t-51 -154.5zM416 1068q0 -55 32 -110t114 -138q115 59 171 113.5t56 136.5q0 80 -52.5 130 t-134.5 50q-83 0 -134.5 -51.5t-51.5 -130.5z" />
<glyph unicode="'" horiz-adv-x="457" d="M140 1365h177l-25 -488h-127z" />
<glyph unicode="(" horiz-adv-x="646" d="M155 566q0 127 17 238t40.5 187.5t62.5 152t69 119t75 100.5h127q-35 -40 -71 -104t-75.5 -161.5t-64.5 -237t-25 -292.5q0 -104 10 -199.5t32.5 -178.5t41 -142t52.5 -128t49 -97t48 -85h-134q-46 56 -85.5 125t-80 170.5t-64.5 239.5t-24 293z" />
<glyph unicode=")" horiz-adv-x="646" d="M100 1363h125q45 -57 75 -100t70 -119t63.5 -152.5t40.5 -187.5t17 -238q0 -155 -24.5 -293t-66 -239.5t-81 -170t-85.5 -125.5h-132q38 66 58 103.5t58.5 126t59 165.5t38 194t17.5 241q0 153 -24.5 292.5t-63.5 237t-74.5 161.5t-70.5 104z" />
<glyph unicode="*" horiz-adv-x="984" d="M104 838l293 151l-293 150l63 109l276 -179l-16 329h126l-16 -329l276 179l63 -109l-293 -150l293 -151l-63 -109l-276 178l16 -328h-126l16 328l-276 -178z" />
<glyph unicode="+" d="M90 476v129h410v425h127v-425h412v-129h-412v-450h-127v450h-410z" />
<glyph unicode="," horiz-adv-x="505" d="M47 -381l139 548h187l-203 -548h-123z" />
<glyph unicode="-" horiz-adv-x="840" d="M105 490v140h630v-140h-630z" />
<glyph unicode="." horiz-adv-x="593" d="M161 116q0 59 39 98t94 39q59 0 98.5 -39t39.5 -98q0 -56 -39.5 -94.5t-98.5 -38.5q-55 0 -94 38.5t-39 94.5z" />
<glyph unicode="/" horiz-adv-x="746" d="M50 -309l507 1746h139l-507 -1746h-139z" />
<glyph unicode="0" horiz-adv-x="1237" d="M140 657v48q0 315 127 502t353 187q150 0 258.5 -86t163.5 -240.5t55 -362.5v-48q0 -315 -126 -500.5t-352 -185.5t-352.5 185.5t-126.5 500.5zM298 659q0 -254 86.5 -400.5t234.5 -146.5t234.5 146.5t86.5 400.5v45q0 254 -86.5 401.5t-234.5 147.5t-234.5 -147.5 t-86.5 -401.5v-45z" />
<glyph unicode="1" horiz-adv-x="922" d="M166 955v167l325 243h157v-1365h-157v1186h-8z" />
<glyph unicode="2" horiz-adv-x="1136" d="M150 993v5q0 164 113.5 280t310.5 116q186 0 301 -105t115 -267q0 -48 -13 -95.5t-29 -83t-52.5 -85.5t-61 -79.5t-75.5 -88.5l-378 -437v-11h635v-142h-864v101l518 599q49 56 77 93t54 98t26 121q0 110 -72.5 176t-184.5 66q-121 0 -192.5 -74.5t-71.5 -181.5v-5h-156z " />
<glyph unicode="3" horiz-adv-x="1156" d="M110 309h151q10 -84 91.5 -141t202.5 -58q140 -1 225 74t83 192q-1 116 -84 186.5t-214 70.5h-148v142h140q112 0 186 69t73 176q-1 104 -73 169t-187 65q-108 0 -179 -57t-78 -138h-153q2 63 29.5 121.5t76.5 106.5t128 77t175 30q186 1 302 -98t121 -249 q2 -69 -22 -130t-63 -101.5t-82.5 -66t-84.5 -32.5v-9q46 -5 94 -26.5t95 -59.5t77.5 -101.5t32.5 -142.5q4 -176 -130 -292t-345 -116q-191 0 -311.5 96.5t-128.5 242.5z" />
<glyph unicode="4" horiz-adv-x="1187" d="M105 288v144q61 109 139.5 239t136.5 221t157 245.5t146 227.5h238v-934h180v-143h-180v-288h-153v288h-664zM269 431h500v790h-9q-276 -408 -491 -780v-10z" />
<glyph unicode="5" horiz-adv-x="1184" d="M155 309h155q20 -101 102.5 -149.5t189.5 -48.5q55 0 108 21.5t96 61.5t69.5 103.5t26.5 141.5q0 137 -89 219.5t-215 82.5q-101 0 -173 -47t-107 -109h-133l62 782h752v-142h-614l-39 -460h9q28 42 100.5 79t173.5 37q185 0 310 -119.5t125 -318.5q0 -210 -131.5 -341 t-342.5 -131q-181 0 -302.5 95t-132.5 243z" />
<glyph unicode="6" horiz-adv-x="1214" d="M140 624q0 385 137 576t369 191q175 0 287.5 -90t121.5 -209h-162q-13 59 -77.5 109t-176.5 50q-152 0 -247 -146t-96 -438h8q33 84 123 146.5t230 62.5q80 0 155.5 -29t136.5 -82t98 -137.5t37 -187.5q0 -219 -129.5 -343.5t-332.5 -124.5q-258 0 -382 201 q-100 164 -100 451zM320 432q0 -147 88 -233.5t216 -86.5q132 0 217 81t85 237q0 76 -25.5 136t-68.5 96t-96 55t-111 19q-133 0 -219 -85.5t-86 -218.5z" />
<glyph unicode="7" horiz-adv-x="1084" d="M120 1223v142h854v-149l-560 -1216h-167l565 1212v11h-692z" />
<glyph unicode="8" horiz-adv-x="1208" d="M130 371q0 76 26.5 139.5t69.5 104t87.5 65t90.5 36.5v9q-37 12 -73 35.5t-70.5 59.5t-55.5 90.5t-21 118.5q0 158 120 261.5t301 103.5t301 -103.5t120 -261.5q0 -65 -22 -120.5t-57.5 -91t-70.5 -58t-71 -34.5v-9q36 -9 72 -26t73 -46.5t65 -66.5t45.5 -90t17.5 -114 q0 -177 -135.5 -289.5t-342.5 -112.5q-206 0 -338 111t-132 289zM285 376q0 -117 91 -192t229 -75t228.5 74.5t90.5 192.5t-90.5 193.5t-228.5 75.5t-229 -75.5t-91 -193.5zM338 1020q0 -105 75.5 -172t191.5 -67q117 0 191.5 67t74.5 172q0 104 -74.5 169t-191.5 65 t-192 -65t-75 -169z" />
<glyph unicode="9" horiz-adv-x="1212" d="M130 938q0 211 132 334.5t334 123.5q73 0 136.5 -17t128 -63t109.5 -120t73.5 -196.5t28.5 -282.5q0 -373 -124 -558t-384 -185q-173 0 -277.5 79.5t-119.5 197.5h163q17 -55 79 -96t159 -41q96 0 167 45.5t110.5 126.5t57 183t14.5 225h-9q-36 -95 -123.5 -156.5 t-219.5 -61.5q-189 0 -312 125.5t-123 336.5zM289 932q0 -152 86.5 -233t213.5 -81q124 0 211.5 80t87.5 229q0 154 -85.5 241t-218.5 87q-124 0 -209.5 -87.5t-85.5 -235.5z" />
<glyph unicode=":" horiz-adv-x="631" d="M180 116q0 59 39 98t94 39q59 0 98.5 -39t39.5 -98q0 -56 -39.5 -94.5t-98.5 -38.5q-55 0 -94 38.5t-39 94.5zM180 799q0 59 39 98t94 39q59 0 98.5 -39t39.5 -98q0 -56 -39.5 -94.5t-98.5 -38.5q-55 0 -94 38.5t-39 94.5z" />
<glyph unicode=";" horiz-adv-x="631" d="M48 -413l159 594h213l-232 -594h-140zM180 804q0 59 39 98t94 39q59 0 98.5 -39t39.5 -98q0 -56 -39.5 -94.5t-98.5 -38.5q-55 0 -94 38.5t-39 94.5z" />
<glyph unicode="&#x3c;" d="M142 440v136l844 515v-170l-683 -402v-9l683 -378v-170z" />
<glyph unicode="=" d="M154 302v127h820v-127h-820zM154 659v129h820v-129h-820z" />
<glyph unicode="&#x3e;" d="M142 -38v170l685 378v9l-685 402v170l845 -515v-136z" />
<glyph unicode="?" horiz-adv-x="996" d="M97 1010q0 106 37 185t99 121.5t129.5 62t141.5 19.5q77 0 146.5 -21t125.5 -61.5t89 -106.5t33 -149q0 -59 -15 -107.5t-47.5 -89.5t-58.5 -66t-71 -62q-43 -35 -61.5 -51.5t-42 -41t-32 -44t-14.5 -46.5t-6 -62v-62h-157v91q0 50 15 93t48 82.5t58 62.5t72 62 q43 35 64 54.5t45 48.5t33 59.5t9 69.5q0 106 -68.5 158t-170.5 52q-121 0 -185 -70t-64 -181h-152zM346 116q0 59 39 98t94 39q59 0 98.5 -39t39.5 -98q0 -56 -39.5 -94.5t-98.5 -38.5q-55 0 -94 38.5t-39 94.5z" />
<glyph unicode="@" horiz-adv-x="1716" d="M120 479v60q0 172 58 316.5t159.5 242t241 152t300.5 54.5h8q137 0 255 -36.5t203 -100t145.5 -149t90 -183t29.5 -201.5v-51q0 -203 -97.5 -326.5t-245.5 -123.5q-101 0 -159 41.5t-68 95.5h-10q-14 -50 -74.5 -93.5t-143.5 -43.5q-122 0 -190 89.5t-68 238.5v87 q0 146 70.5 235t197.5 89q77 0 128 -38.5t67 -86.5h8v111h134v-486q0 -59 35 -91t91 -32q83 0 138.5 88t55.5 256v37q0 110 -39.5 209.5t-113 176.5t-187 122.5t-252.5 45.5h-8q-131 0 -245 -45.5t-198 -128t-132.5 -206t-48.5 -271.5v-48q0 -125 32 -229t89 -178.5 t135 -126t170 -76.5t194 -25h8q212 0 331 52v-123q-106 -49 -331 -49h-8q-157 0 -293 47.5t-239.5 138.5t-163 235.5t-59.5 327.5zM693 478q0 -114 44.5 -168t121.5 -54t121.5 53t44.5 162v79q0 98 -47 153.5t-121 55.5q-72 0 -118 -55t-46 -162v-64z" />
<glyph unicode="A" horiz-adv-x="1243" d="M54 0l490 1365h155l490 -1365h-171l-142 420h-516l-143 -420h-163zM405 551h426l-210 617h-6z" />
<glyph unicode="B" horiz-adv-x="1270" d="M194 0v1365h503q170 0 272.5 -89.5t102.5 -246.5q0 -119 -57.5 -194.5t-158.5 -107.5v-7q143 -20 219 -110t76 -228q0 -183 -130 -282.5t-347 -99.5h-480zM353 145h243q73 0 127 5t106.5 20t85.5 40t53 67.5t20 100.5q0 124 -79.5 188t-214.5 64h-341v-485zM353 774h214 q174 0 258.5 53.5t84.5 174.5q0 110 -65 164.5t-171 54.5h-321v-447z" />
<glyph unicode="C" horiz-adv-x="1297" d="M140 576v205q0 289 143.5 451t386.5 162q97 0 179.5 -26.5t140 -71.5t98 -104t60 -124t19.5 -131h-158q0 122 -91.5 217t-247.5 95q-170 0 -271 -121.5t-101 -349.5v-200q0 -231 100.5 -346t276.5 -115q158 0 246 82.5t88 203.5h158q0 -58 -18 -116.5t-57.5 -115.5 t-96 -101.5t-141.5 -71.5t-186 -27q-246 0 -387 155.5t-141 449.5z" />
<glyph unicode="D" horiz-adv-x="1339" d="M194 0v1365h428q161 0 278 -50t186 -143t101.5 -214.5t32.5 -275.5q0 -120 -19 -220t-63 -187t-112 -147t-170.5 -94t-233.5 -34h-428zM353 145h263q439 0 439 537q0 539 -439 539h-263v-1076z" />
<glyph unicode="E" horiz-adv-x="1147" d="M194 0v1365h809v-145h-650v-450h614v-144h-614v-481h650v-145h-809z" />
<glyph unicode="F" horiz-adv-x="1077" d="M194 0v1365h796v-145h-637v-478h585v-145h-585v-597h-159z" />
<glyph unicode="G" horiz-adv-x="1322" d="M140 591v190q0 289 147.5 451t393.5 162q222 0 352.5 -127t144.5 -314h-158q-19 147 -114 221.5t-229 74.5q-79 0 -145.5 -27t-120 -81.5t-83.5 -146.5t-30 -213v-190q0 -225 96.5 -349.5t277.5 -124.5q154 0 254 86t100 221v138h-364v146h520v-284q0 -55 -15.5 -113.5 t-53 -120.5t-93.5 -109.5t-145.5 -78.5t-199.5 -31q-261 0 -398 164t-137 456z" />
<glyph unicode="H" horiz-adv-x="1412" d="M194 0v1365h159v-585h706v585h159v-1365h-159v636h-706v-636h-159z" />
<glyph unicode="I" horiz-adv-x="547" d="M194 0v1365h159v-1365h-159z" />
<glyph unicode="J" horiz-adv-x="1003" d="M51 301h156q4 -85 65 -134.5t147 -49.5q108 0 171.5 62t63.5 193v993h159v-975q0 -207 -107 -313t-287 -106q-165 0 -266.5 91t-101.5 239z" />
<glyph unicode="K" horiz-adv-x="1227" d="M194 0v1365h159v-668h7l606 668h191l-512 -580l540 -785h-205l-454 674l-173 -187v-487h-159z" />
<glyph unicode="L" horiz-adv-x="1038" d="M194 0v1365h159v-1220h637v-145h-796z" />
<glyph unicode="M" horiz-adv-x="1631" d="M199 0v1365h153l461 -1093h6l459 1093h154v-1365h-145v1017h-9l-391 -912h-143l-392 912h-8v-1017h-145z" />
<glyph unicode="N" horiz-adv-x="1412" d="M194 0v1365h159l698 -1092h8v1092h159v-1365h-159l-699 1092h-7v-1092h-159z" />
<glyph unicode="O" horiz-adv-x="1360" d="M140 573v205q0 288 147 452t394 164t393 -164t146 -452v-205q0 -286 -147 -444t-396 -158q-248 0 -392.5 158t-144.5 444zM299 573q0 -225 105 -340.5t275 -115.5q171 0 276.5 115.5t105.5 340.5v205q0 227 -106.5 349t-275.5 122q-168 0 -274 -122t-106 -349v-205z" />
<glyph unicode="P" horiz-adv-x="1195" d="M194 0v1365h489q192 0 311 -115.5t119 -304.5q0 -190 -119 -304.5t-311 -114.5h-330v-526h-159zM353 669h214q78 0 133.5 6.5t105 24t79.5 48.5t47 80t17 117q0 131 -71.5 203.5t-200.5 72.5h-324v-552z" />
<glyph unicode="Q" horiz-adv-x="1362" d="M140 580v205q0 287 145.5 448t393.5 161t394.5 -161t146.5 -448v-205q0 -312 -174 -475l190 -262h-184l-130 178q-109 -50 -243 -50q-248 0 -393.5 161t-145.5 448zM298 582q0 -227 106 -346t275 -119q83 0 151 28l-154 209h188l89 -120q108 124 108 348v201 q0 226 -106 346t-276 120q-169 0 -275 -120t-106 -346v-201z" />
<glyph unicode="R" horiz-adv-x="1259" d="M194 0v1365h485q109 0 193.5 -33t135.5 -90t77 -128t26 -152q0 -80 -22 -146.5t-60 -111.5t-80.5 -74.5t-92.5 -47.5l279 -582h-183l-254 549h-345v-549h-159zM353 693h298q146 0 221 67t75 191q0 131 -76.5 200.5t-211.5 69.5h-306v-528z" />
<glyph unicode="S" horiz-adv-x="1200" d="M88 365h161q11 -108 100.5 -178t244.5 -70q147 0 234 66.5t87 181.5q0 86 -54.5 139.5t-170.5 83.5l-245 65q-63 17 -116.5 44.5t-99.5 69t-72.5 103.5t-26.5 138q0 122 68 212.5t172.5 134t226.5 43.5q87 0 167 -23t147.5 -68.5t109 -121.5t43.5 -173h-160 q-10 107 -90 174t-221 67q-134 0 -217.5 -62t-83.5 -172q0 -159 193 -209l240 -65q172 -46 262.5 -131.5t90.5 -237.5q0 -98 -39.5 -176t-109 -127.5t-160 -75.5t-195.5 -26q-86 0 -159 17t-124.5 46.5t-90.5 67.5t-62.5 83t-35.5 89.5t-14 90.5z" />
<glyph unicode="T" horiz-adv-x="1092" d="M48 1221v144h996v-144h-419v-1221h-159v1221h-418z" />
<glyph unicode="U" horiz-adv-x="1380" d="M178 478v887h159v-891q0 -163 95.5 -260.5t257.5 -97.5t257.5 97.5t95.5 260.5v891h159v-891q0 -226 -141.5 -364.5t-370.5 -138.5q-228 0 -370 140.5t-142 366.5z" />
<glyph unicode="V" horiz-adv-x="1242" d="M45 1365h181l391 -1172h9l389 1172h182l-499 -1365h-156z" />
<glyph unicode="W" horiz-adv-x="1715" d="M42 1365h188l261 -1113h8l273 1113h171l272 -1113h9l261 1113h188l-379 -1365h-142l-291 1102h-9l-291 -1102h-141z" />
<glyph unicode="X" horiz-adv-x="1168" d="M36 0l450 688l-443 677h192l354 -549h9l350 549h184l-456 -690l446 -675h-194l-349 549h-9l-352 -549h-182z" />
<glyph unicode="Y" horiz-adv-x="1131" d="M30 1365h183l347 -610h9l349 610h183l-457 -766v-599h-158v599z" />
<glyph unicode="Z" horiz-adv-x="1195" d="M110 0v114l742 1096v11h-715v144h913v-112l-737 -1098v-10h754v-145h-957z" />
<glyph unicode="[" horiz-adv-x="674" d="M155 -228v1593h416v-119h-266v-1355h279v-119h-429z" />
<glyph unicode="\" horiz-adv-x="746" d="M50 1437h139l507 -1746h-139z" />
<glyph unicode="]" horiz-adv-x="674" d="M90 -109h280v1355h-267v119h416v-1593h-429v119z" />
<glyph unicode="^" horiz-adv-x="792" d="M76 795l243 570h155l242 -570h-133l-185 441h-4l-185 -441h-133z" />
<glyph unicode="_" horiz-adv-x="894" d="M-1 -103h896v-125h-896v125z" />
<glyph unicode="`" horiz-adv-x="1000" d="M259 1575h161l239 -354h-122z" />
<glyph unicode="a" horiz-adv-x="1108" d="M123 305q0 140 95.5 223.5t271.5 83.5h280v107q0 104 -61 155t-172 51q-99 0 -150.5 -32.5t-70.5 -93.5h-153q12 132 112.5 199.5t268.5 67.5q82 0 149.5 -19t121.5 -58.5t84 -108t30 -160.5v-720h-152v141h-7q-99 -158 -305 -158q-153 0 -247.5 89t-94.5 233zM285 308 q0 -91 63.5 -140t156.5 -49q113 0 189 69t76 171v122h-277q-106 0 -157 -47t-51 -126z" />
<glyph unicode="b" horiz-adv-x="1198" d="M185 0v1437h157v-554h8q21 73 102 128t209 55q184 0 294.5 -119.5t110.5 -325.5v-192q0 -207 -112 -326.5t-299 -119.5q-122 0 -201 49t-112 122h-8v-154h-149zM342 421q0 -128 81.5 -213t210.5 -85q126 0 200 86.5t74 254.5v117q0 167 -73.5 257t-205.5 90 q-133 0 -210 -87t-77 -234v-186z" />
<glyph unicode="c" horiz-adv-x="1076" d="M132 434v184q0 204 116 326t314 122q93 0 169.5 -27t123.5 -72t73 -98.5t28 -109.5h-157q-5 27 -18 52t-38 53.5t-71.5 46t-107.5 17.5q-134 0 -205 -85.5t-71 -231.5v-179q0 -140 74 -221t202 -81q205 0 243 147h157q-3 -55 -28 -106t-72 -93.5t-125 -68.5t-177 -26 q-198 0 -314 122t-116 329z" />
<glyph unicode="d" horiz-adv-x="1200" d="M132 416v218q0 194 112 313.5t299 119.5q121 0 198.5 -49.5t106.5 -121.5h8v541h157v-1437h-149v167h-8q-20 -72 -105 -127.5t-213 -55.5q-183 0 -294.5 117.5t-111.5 314.5zM289 457q0 -159 75 -247t206 -88t208.5 85.5t77.5 230.5v196q0 127 -82 210t-210 83 t-201.5 -88t-73.5 -245v-137z" />
<glyph unicode="e" horiz-adv-x="1112" d="M132 439v170q0 206 119 331.5t308 125.5t308 -125.5t119 -331.5v-128h-696v-53q0 -133 73.5 -219t207.5 -86q91 0 154 36.5t79 88.5h167q-7 -43 -34.5 -87t-74.5 -85t-123 -67t-167 -26q-207 0 -323.5 123.5t-116.5 332.5zM290 603h538v19q0 138 -74 222t-195 84 t-195 -84t-74 -222v-19z" />
<glyph unicode="f" horiz-adv-x="790" d="M95 915v134h178v105q0 151 76 222t244 71q58 0 112 -6v-133q-32 4 -93 4q-99 0 -140.5 -36.5t-41.5 -133.5v-93h245v-134h-245v-915h-157v915h-178z" />
<glyph unicode="g" horiz-adv-x="1161" d="M117 453v177q0 198 119.5 317t298.5 119q111 0 194 -52.5t112 -121.5h7v157h149v-1024q0 -209 -120 -314t-334 -105q-187 0 -288.5 79t-114.5 203h164q11 -61 76.5 -101.5t169.5 -40.5q143 0 217 72.5t74 203.5v161h-9q-33 -71 -112 -117.5t-184 -46.5 q-117 0 -211.5 51.5t-151 151t-56.5 231.5zM273 490q0 -147 82.5 -239.5t212.5 -92.5q126 0 199 88t73 209v169q0 123 -75 213.5t-199 90.5q-134 0 -213.5 -92.5t-79.5 -242.5v-103z" />
<glyph unicode="h" horiz-adv-x="1213" d="M187 0v1437h157v-580h8q9 32 30 64t57.5 66.5t99.5 56.5t141 22q159 0 256.5 -89.5t97.5 -258.5v-718h-158v669q0 125 -64.5 193t-178.5 68q-139 0 -214 -96.5t-75 -245.5v-588h-157z" />
<glyph unicode="i" horiz-adv-x="579" d="M171 1376q0 51 34 85t83 34q52 0 86 -33.5t34 -85.5q0 -50 -34 -83.5t-86 -33.5q-49 0 -83 33.5t-34 83.5zM211 0v1049h157v-1049h-157z" />
<glyph unicode="j" horiz-adv-x="579" d="M-4 -239q27 -5 67 -5q81 0 114.5 50t33.5 162v1081h157v-1083q0 -342 -274 -342q-64 0 -98 9v128zM171 1376q0 51 34 85t83 34q52 0 86 -33.5t34 -85.5q0 -50 -34 -83.5t-86 -33.5q-49 0 -83 33.5t-34 83.5z" />
<glyph unicode="k" horiz-adv-x="1050" d="M187 0v1437h157v-869h6l444 481h184l-419 -456l446 -593h-189l-371 493l-101 -101v-392h-157z" />
<glyph unicode="l" horiz-adv-x="537" d="M190 0v1437h157v-1437h-157z" />
<glyph unicode="m" horiz-adv-x="1780" d="M184 0v1049h157v-165h8q62 182 284 182q115 0 190.5 -54.5t102.5 -142.5h7q37 87 116.5 142t203.5 55q164 0 256 -84.5t92 -241.5v-740h-157v701q0 104 -59 166.5t-170 62.5q-104 0 -174 -72t-70 -182v-676h-157v693q0 105 -63 171t-171 66q-105 0 -172 -71t-67 -181 v-678h-157z" />
<glyph unicode="n" horiz-adv-x="1206" d="M184 0v1049h157v-192h8q68 209 320 209q164 0 261 -88t97 -258v-720h-158v671q0 126 -61.5 192.5t-175.5 66.5q-142 0 -216.5 -96t-74.5 -246v-588h-157z" />
<glyph unicode="o" horiz-adv-x="1155" d="M132 442v166q0 207 126 332.5t320 125.5q195 0 320 -122.5t125 -335.5v-166q0 -214 -125 -336.5t-320 -122.5q-199 0 -322.5 121.5t-123.5 337.5zM288 459q0 -155 77 -245.5t213 -90.5q135 0 211 90t76 246v132q0 152 -78 244.5t-209 92.5t-210.5 -93t-79.5 -244v-132z " />
<glyph unicode="p" horiz-adv-x="1197" d="M185 -367v1417h149v-167h8q30 78 111.5 130.5t205.5 52.5q184 0 294 -119.5t110 -325.5v-192q0 -207 -112 -326.5t-299 -119.5q-121 0 -195 48t-107 123h-8v-521h-157zM342 416q0 -128 79.5 -210.5t208.5 -82.5q126 0 201 86.5t75 256.5v117q0 167 -74 256t-207 89 t-208 -85t-75 -231v-196z" />
<glyph unicode="q" horiz-adv-x="1195" d="M132 425v198q0 199 110.5 321t294.5 122q118 0 199.5 -50.5t116.5 -130.5h8v164h149v-1417h-157v525h-8q-33 -76 -112 -125t-199 -49q-185 0 -293.5 120.5t-108.5 321.5zM289 456q0 -158 73.5 -246.5t206.5 -88.5q132 0 208 85.5t76 230.5v196q0 127 -80.5 210t-207.5 83 q-130 0 -203 -90t-73 -243v-137z" />
<glyph unicode="r" horiz-adv-x="787" d="M202 0v1049h157v-161h8q12 30 31.5 57.5t53 56.5t87.5 46t122 17q19 0 61 -4v-146q-23 4 -80 4q-136 0 -209.5 -72t-73.5 -184v-663h-157z" />
<glyph unicode="s" horiz-adv-x="1030" d="M113 271h154q24 -157 238 -157q125 0 186.5 48.5t61.5 125.5q0 30 -8 53t-28 40.5t-39 29t-55.5 22t-61.5 16t-72 14.5q-51 11 -82.5 18.5t-74 20.5t-68 26.5t-54 35t-44 47t-25.5 61.5t-10 79q0 79 31.5 141t85.5 99t121.5 56t144.5 19q166 0 267 -80.5t101 -209.5h-148 q-5 64 -64 112.5t-163 48.5q-99 0 -160.5 -45t-61.5 -124q0 -35 16 -62.5t31.5 -42.5t59 -29t59.5 -17.5t71 -13.5q13 -3 20 -4q68 -12 115 -24t98 -34.5t82 -51.5t51 -75.5t20 -106.5q0 -153 -112.5 -238.5t-297.5 -85.5q-173 0 -279 75.5t-106 212.5z" />
<glyph unicode="t" horiz-adv-x="754" d="M77 915v134h160v264h157v-264h238v-134h-238v-630q0 -96 36.5 -128.5t137.5 -32.5q41 0 81 5v-131q-37 -8 -121 -8q-91 0 -149 17.5t-89 58t-42 92.5t-11 135v622h-160z" />
<glyph unicode="u" horiz-adv-x="1200" d="M176 316v733h158v-693q0 -126 65 -181.5t174 -55.5q120 0 202.5 76.5t82.5 180.5v673h158v-1049h-158v174h-9q-26 -76 -106 -133.5t-206 -57.5q-168 0 -264.5 80t-96.5 253z" />
<glyph unicode="v" horiz-adv-x="1025" d="M55 1049h175l273 -880h7l292 880h168l-383 -1049h-157z" />
<glyph unicode="w" horiz-adv-x="1496" d="M60 1049h179l194 -839h7l239 839h148l246 -839h7l199 839h157l-281 -1049h-153l-246 819h-4l-240 -819h-154z" />
<glyph unicode="x" horiz-adv-x="1054" d="M80 1049h190l251 -398h7l259 398h181l-358 -513l364 -536h-190l-258 399h-6l-259 -399h-179l356 518z" />
<glyph unicode="y" horiz-adv-x="1080" d="M65 1049h175l293 -886h7l293 886h167l-379 -1060l-27 -73q-20 -54 -36.5 -90.5t-45.5 -80t-62 -69.5t-83 -43.5t-111 -17.5q-49 0 -101 8v133q27 -5 76 -5q89 0 136 42.5t72 129.5l17 60z" />
<glyph unicode="z" horiz-adv-x="1015" d="M120 910v139h771v-111l-571 -788v-9h575v-141h-771v112l570 788v10h-574z" />
<glyph unicode="{" horiz-adv-x="739" d="M100 498v171q99 0 134.5 46.5t35.5 155.5v249q0 171 91.5 246.5t265.5 75.5h52v-126h-41q-121 0 -172 -51t-51 -162v-286q0 -205 -166 -222v-22q166 -15 166 -222v-325q0 -111 51 -162.5t172 -51.5h41v-126h-52q-357 0 -357 331v279q0 110 -35.5 156t-134.5 46z" />
<glyph unicode="|" horiz-adv-x="711" d="M290 -309v1746h131v-1746h-131z" />
<glyph unicode="}" horiz-adv-x="739" d="M60 -188h41q121 0 172 51.5t51 162.5v325q0 207 166 222v22q-166 17 -166 222v286q0 111 -51 162t-172 51h-41v126h52q174 0 265.5 -75.5t91.5 -246.5v-249q0 -109 35.5 -155.5t134.5 -46.5v-171q-99 0 -134.5 -46t-35.5 -156v-279q0 -331 -357 -331h-52v126z" />
<glyph unicode="~" horiz-adv-x="1167" d="M103 539q0 63 15.5 117.5t48.5 100.5t91 72.5t135 26.5q62 0 117.5 -28.5t116.5 -88.5q44 -48 80 -74t74 -26q67 0 100.5 47.5t38.5 125.5h144q0 -63 -15.5 -118t-48.5 -101.5t-91 -73t-135 -26.5q-62 0 -116.5 29t-116.5 90q-66 64 -94 81q-31 19 -60 19q-69 0 -102 -48 t-37 -125h-145z" />
<glyph unicode="&#xa1;" horiz-adv-x="564" d="M146 973q0 56 39.5 94.5t98.5 38.5q55 0 94 -38.5t39 -94.5q0 -59 -39 -98t-94 -39q-59 0 -98.5 39t-39.5 98zM189 -276l20 873h139l20 -873h-179z" />
<glyph unicode="&#xa2;" d="M141 587v184q0 186 98 305.5t268 138.5v248h128v-247q153 -18 239.5 -106.5t90.5 -197.5h-157q-5 27 -18 52t-38 53.5t-71.5 46t-107.5 17.5q-134 0 -205 -85.5t-71 -231.5v-179q0 -140 74 -221t202 -81q205 0 243 147h157q-2 -50 -23.5 -97.5t-61.5 -88.5t-105 -69 t-148 -36v-228h-128v229q-171 20 -268.5 139t-97.5 308z" />
<glyph unicode="&#xa3;" d="M100 638v126h198v300q0 158 107 244t267 86t256 -83t101 -220h-148q-5 73 -62 121t-149 48q-107 0 -161 -60t-54 -151v-285h299v-126h-299v-241q0 -105 -13.5 -166.5t-52.5 -86.5v-10h648v-134h-914v143q32 0 49.5 1t39.5 6t33 15.5t23.5 29t17.5 47t8.5 68t3.5 94.5v234 h-198z" />
<glyph unicode="&#xa4;" d="M89 269l179 180q-66 93 -66 207q0 111 61 200l-174 174l93 93l172 -173q93 68 210 68q112 0 205 -64l169 169l93 -93l-169 -169q64 -93 64 -205q0 -118 -70 -213l175 -174l-92 -92l-177 177q-91 -59 -198 -59q-112 0 -203 63l-180 -181zM314 656q0 -103 73 -176t177 -73 q103 0 177 73t74 176t-74 177t-177 74t-176.5 -73.5t-73.5 -177.5z" />
<glyph unicode="&#xa5;" d="M30 1365h183l347 -610h9l349 610h183l-407 -683h238v-116h-288v-151h288v-116h-288v-299h-158v299h-288v116h288v151h-288v116h239z" />
<glyph unicode="&#xa6;" horiz-adv-x="451" d="M160 -309v685h131v-685h-131zM160 783v654h131v-654h-131z" />
<glyph unicode="&#xa7;" horiz-adv-x="984" d="M100 54h155q12 -78 71.5 -122.5t160.5 -44.5q118 0 175 52.5t57 132.5q0 36 -13 64t-35 46t-54.5 31.5t-67.5 23.5t-79 20q-7 1 -10 2q-78 19 -133.5 40.5t-105 56t-74.5 86.5t-25 121q0 88 49.5 147.5t119.5 94.5v8q-164 90 -164 254q0 155 108 241.5t262 86.5 q161 0 262 -88t101 -221h-148q-4 63 -61.5 117t-158.5 54q-93 0 -151 -50.5t-58 -132.5q0 -38 15 -67t35.5 -47t58.5 -33.5t66 -23t76 -18.5q44 -10 74 -17.5t69.5 -21.5t66.5 -29t55.5 -38t45 -50.5t27.5 -65.5t11 -83q0 -82 -43 -145.5t-107 -104.5v-8q65 -42 104.5 -95.5 t39.5 -139.5q0 -154 -110.5 -247t-282.5 -93q-162 0 -273 83.5t-111 223.5zM277 581q0 -80 57.5 -122t170.5 -70q7 -2 100 -23q51 19 86 75t35 118q0 80 -58.5 124.5t-173.5 68.5q-75 16 -81 17q-47 -12 -91.5 -66.5t-44.5 -121.5z" />
<glyph unicode="&#xa8;" horiz-adv-x="1000" d="M205 1368q0 44 31 73.5t75 29.5q45 0 76 -29.5t31 -73.5q0 -42 -31.5 -71.5t-75.5 -29.5t-75 29.5t-31 71.5zM563 1368q0 44 30.5 73.5t72.5 29.5q47 0 78.5 -29.5t31.5 -73.5q0 -42 -32 -71.5t-78 -29.5q-42 0 -72.5 29.5t-30.5 71.5z" />
<glyph unicode="&#xa9;" horiz-adv-x="1693" d="M132 644v103q0 142 54 268t148 218t229 145.5t289 53.5q155 0 290 -54t228.5 -146.5t147.5 -218.5t54 -266v-103q0 -151 -53 -282t-146.5 -224.5t-228.5 -147.5t-292 -54q-209 0 -374 92t-255.5 253.5t-90.5 362.5zM253 640q0 -257 165.5 -422t433.5 -165t435 165 t167 422v107q0 117 -44.5 221t-122.5 180t-191 120.5t-244 44.5t-243.5 -44.5t-190 -120.5t-121.5 -180t-44 -221v-107zM537 632v99q0 158 85.5 245t235.5 87q70 0 126.5 -21.5t92 -56.5t55 -77.5t20.5 -87.5h-118q-4 22 -13.5 42t-28 42.5t-53 36t-80.5 13.5 q-102 0 -153.5 -58.5t-51.5 -170.5v-94q0 -108 54 -163t151 -55q152 0 181 115h118q-2 -43 -20.5 -83t-53.5 -73.5t-93.5 -54t-132.5 -20.5q-151 0 -236 87t-85 248z" />
<glyph unicode="&#xaa;" horiz-adv-x="684" d="M105 961q0 80 53 125.5t153 45.5h148v53q0 96 -116 96q-94 0 -109 -62h-108q6 73 63 115t158 42t162.5 -46t61.5 -146v-388h-107v75h-5q-50 -84 -165 -84q-85 0 -137 46.5t-52 127.5zM215 968q0 -44 32.5 -67.5t80.5 -23.5q55 0 93 32.5t38 80.5v60h-133q-55 1 -83 -21.5 t-28 -60.5z" />
<glyph unicode="&#xab;" horiz-adv-x="1311" d="M140 557v8l344 404h185l-339 -403v-6l339 -405h-194zM612 557v8l344 404h185l-339 -403v-6l339 -405h-194z" />
<glyph unicode="&#xac;" d="M90 480v129h949v-509h-138v380h-811z" />
<glyph unicode="&#xad;" horiz-adv-x="840" d="M105 490v140h630v-140h-630z" />
<glyph unicode="&#xae;" horiz-adv-x="1211" d="M126 878v68q0 189 138.5 319t344.5 130q205 0 344 -131t139 -318v-68q0 -200 -136.5 -332t-346.5 -132q-209 0 -346 132t-137 332zM219 878q0 -161 110 -266t280 -105t280.5 105t110.5 266v68q0 151 -111.5 254.5t-279.5 103.5t-279 -103.5t-111 -254.5v-68zM440 676v477 h216q63 0 104.5 -41t41.5 -101q0 -51 -26.5 -89.5t-67.5 -50.5l109 -195h-107l-95 185h-85v-185h-90zM530 928h77q104 0 104 79q0 38 -25 58t-65 20h-91v-157z" />
<glyph unicode="&#xaf;" horiz-adv-x="1000" d="M209 1272v101h568v-101h-568z" />
<glyph unicode="&#xb0;" horiz-adv-x="729" d="M84 1102q0 116 82 198t200 82q116 0 198 -82t82 -198q0 -117 -82 -199.5t-198 -82.5q-118 0 -200 82.5t-82 199.5zM207 1102q0 -64 47.5 -111.5t111.5 -47.5q66 0 112.5 47t46.5 112q0 66 -46.5 112.5t-112.5 46.5q-64 0 -111.5 -47t-47.5 -112z" />
<glyph unicode="&#xb1;" d="M88 659v129h410v281h127v-281h412v-129h-412v-294h-127v294h-410zM91 127v129h949v-129h-949z" />
<glyph unicode="&#xb2;" horiz-adv-x="690" d="M112 1161v9q0 84 59.5 145t163.5 61q98 0 159.5 -54.5t61.5 -137.5q0 -59 -30.5 -108.5t-85.5 -107.5l-172 -173h300v-106h-446v78l243 271q73 77 73 138q0 44 -29.5 70t-75.5 26q-49 0 -78 -30t-29 -72v-9h-114z" />
<glyph unicode="&#xb3;" horiz-adv-x="697" d="M104 869h110q4 -38 38 -63.5t85 -25.5q56 0 90.5 29.5t34.5 74.5q0 44 -33.5 73t-89.5 29h-79v102h76q46 0 75 26.5t29 68.5q0 41 -28 66.5t-74 25.5q-47 0 -76.5 -25.5t-32.5 -61.5h-110q3 78 61.5 133t158.5 55q95 0 155.5 -49t60.5 -127q0 -56 -32.5 -98t-87.5 -58 q63 -12 103.5 -53t40.5 -109q0 -89 -67.5 -146.5t-172.5 -57.5t-168.5 56.5t-66.5 134.5z" />
<glyph unicode="&#xb4;" horiz-adv-x="1000" d="M325 1221l239 354h161l-278 -354h-122z" />
<glyph unicode="&#xb6;" horiz-adv-x="1272" d="M128 949q0 98 31 174.5t77.5 121t108 73t114 38t104.5 9.5h176v-1575h-157v747h-20q-49 0 -103.5 12t-114.5 42.5t-107 75.5t-78 118.5t-31 163.5zM897 -210v1575h157v-1575h-157z" />
<glyph unicode="&#xb7;" horiz-adv-x="659" d="M194 737q0 59 39 98t94 39q59 0 98.5 -39t39.5 -98q0 -56 -39.5 -94.5t-98.5 -38.5q-55 0 -94 38.5t-39 94.5z" />
<glyph unicode="&#xb8;" horiz-adv-x="1000" d="M355 -370q47 -14 117 -14q49 0 84 19t35 62q0 17 -5.5 29.5t-19 20t-23.5 11.5t-33 6t-33 2h-37h-52v75l63 169h114l-55 -150q100 0 157.5 -40.5t57.5 -119.5q0 -89 -61 -135.5t-158 -51.5q-82 -4 -151 15v102z" />
<glyph unicode="&#xb9;" horiz-adv-x="653" d="M167 1122v120l157 123h118v-676h-118v549h-5z" />
<glyph unicode="&#xba;" horiz-adv-x="673" d="M81 1044v76q0 115 71.5 185.5t185.5 70.5t185 -69t71 -187v-76q0 -120 -71 -188.5t-185 -68.5q-116 0 -186.5 68t-70.5 189zM195 1049q0 -76 37 -121t106 -45q68 0 104.5 45t36.5 121v66q0 74 -37.5 120t-103.5 46q-67 0 -105 -46t-38 -120v-66z" />
<glyph unicode="&#xbb;" horiz-adv-x="1311" d="M140 155l339 405v6l-339 403h185l344 -404v-8l-335 -402h-194zM612 155l339 405v6l-339 403h185l344 -404v-8l-335 -402h-194z" />
<glyph unicode="&#xbc;" horiz-adv-x="1385" d="M70 1122v120l157 123h118v-676h-118v549h-5zM90 0l520 683l519 682h143l-519 -682l-520 -683h-143zM789 126v93q30 54 69 119t65 106.5t77.5 123t69.5 110.5h159v-454h81v-98h-81v-126h-106v126h-334zM909 224h214v350h-5q-73 -109 -209 -347v-3z" />
<glyph unicode="&#xbd;" horiz-adv-x="1403" d="M70 1122v120l157 123h118v-676h-118v549h-5zM90 0l520 683l519 682h143l-519 -682l-520 -683h-143zM895 458v9q0 86 61 148t167 62q100 0 162.5 -56t62.5 -140q0 -59 -31 -110t-87 -110l-176 -176h306v-108h-455v80l248 276q75 77 75 140q0 44 -30 71t-77 27 q-50 0 -79.5 -30.5t-29.5 -73.5v-9h-117z" />
<glyph unicode="&#xbe;" horiz-adv-x="1432" d="M57 844h111q4 -39 38.5 -65t86.5 -26q56 0 91.5 30t35.5 76q0 45 -34 74t-91 29h-80v104h77q47 0 76.5 26.5t29.5 69.5q0 42 -29 68t-75 26q-47 0 -77 -26t-34 -63h-111q3 79 62 135t161 56q96 0 157.5 -50t61.5 -129q0 -57 -32.5 -99.5t-88.5 -58.5q63 -12 104.5 -53.5 t41.5 -110.5q0 -91 -68.5 -149t-175.5 -58q-106 0 -170.5 57t-67.5 137zM137 0l520 683l519 682h143l-519 -682l-520 -683h-143zM836 126v93q30 54 69 119t65 106.5t77.5 123t69.5 110.5h161v-452h79v-100h-79v-126h-108v126h-334zM956 226h214v348h-5q-81 -120 -209 -345 v-3z" />
<glyph unicode="&#xbf;" horiz-adv-x="995" d="M97 11q0 59 15 107.5t47.5 89.5t58.5 66t71 62q43 35 61.5 51.5t42 41t32 44t14.5 46.5t6 62v62h157v-91q0 -50 -15 -93t-48 -82.5t-58 -62.5t-72 -62q-43 -35 -64 -54.5t-45 -48.5t-33 -59.5t-9 -69.5q0 -106 68.5 -158t170.5 -52q121 0 185 70t64 181h152 q0 -106 -37 -185t-99 -121.5t-129.5 -62t-141.5 -19.5q-77 0 -146.5 21t-125.5 61.5t-89 106.5t-33 149zM378 955q0 56 39.5 94.5t98.5 38.5q55 0 94 -38.5t39 -94.5q0 -59 -39 -98t-94 -39q-59 0 -98.5 39t-39.5 98z" />
<glyph unicode="&#xc0;" horiz-adv-x="1243" d="M54 0l490 1365h155l490 -1365h-171l-142 420h-516l-143 -420h-163zM302 1715h190l253 -201h-173zM405 551h426l-210 617h-6z" />
<glyph unicode="&#xc1;" horiz-adv-x="1243" d="M54 0l490 1365h155l490 -1365h-171l-142 420h-516l-143 -420h-163zM405 551h426l-210 617h-6zM497 1514l253 201h190l-264 -201h-179z" />
<glyph unicode="&#xc2;" horiz-adv-x="1243" d="M54 0l490 1365h155l490 -1365h-171l-142 420h-516l-143 -420h-163zM303 1503l282 244h99l271 -244h-163l-158 144h-5l-167 -144h-159zM405 551h426l-210 617h-6z" />
<glyph unicode="&#xc3;" horiz-adv-x="1243" d="M54 0l490 1365h155l490 -1365h-171l-142 420h-516l-143 -420h-163zM323 1479q0 87 45 148t134 61q76 0 153 -74l15.5 -15.5l16 -16t14.5 -12t18 -9t20 -2.5q23 0 40 20t24.5 43.5t9.5 48.5h111q0 -80 -48.5 -145t-128.5 -65q-54 0 -88.5 17.5t-68.5 51.5l-8 8l-8.5 8.5 t-8.5 8t-9 8t-9 6.5t-10.5 6t-10 4.5t-11 3.5t-11.5 1q-21 0 -35 -9.5t-20.5 -27.5t-9.5 -32.5t-4 -35.5h-112zM405 551h426l-210 617h-6z" />
<glyph unicode="&#xc4;" horiz-adv-x="1243" d="M54 0l490 1365h155l490 -1365h-171l-142 420h-516l-143 -420h-163zM344 1581q0 43 29.5 71t72.5 28q45 0 74.5 -28t29.5 -71q0 -42 -29.5 -70t-74.5 -28q-43 0 -72.5 28t-29.5 70zM405 551h426l-210 617h-6zM692 1581q0 43 29 71t72 28q46 0 76 -28t30 -71q0 -42 -30 -70 t-76 -28q-42 0 -71.5 28t-29.5 70z" />
<glyph unicode="&#xc5;" horiz-adv-x="1243" d="M54 0l485 1352q-48 23 -77 68.5t-29 100.5q0 77 54.5 131t132.5 54q77 0 131 -54t54 -131q0 -54 -28 -98.5t-74 -68.5l486 -1354h-171l-142 420h-516l-143 -420h-163zM405 551h426l-210 617h-6zM515 1521q0 -43 31.5 -74t73.5 -31q43 0 74 31t31 74t-30.5 74t-74.5 31 q-42 0 -73.5 -31t-31.5 -74z" />
<glyph unicode="&#xc6;" horiz-adv-x="1897" d="M42 0l754 1365h957v-145h-640v-450h604v-144h-604v-481h640v-145h-799v442h-493l-238 -442h-181zM534 576h420v644h-73z" />
<glyph unicode="&#xc7;" horiz-adv-x="1297" d="M140 576v205q0 289 143.5 451t386.5 162q97 0 179.5 -26.5t140 -71.5t98 -104t60 -124t19.5 -131h-158q0 122 -91.5 217t-247.5 95q-170 0 -271 -121.5t-101 -349.5v-200q0 -231 100.5 -346t276.5 -115q158 0 246 82.5t88 203.5h158q0 -55 -16.5 -111.5t-53 -112 t-89 -99.5t-130 -73.5t-170.5 -34.5l-41 -112q100 0 157.5 -40.5t57.5 -119.5q0 -89 -61 -135.5t-158 -51.5q-82 -4 -151 15v102q47 -14 117 -14q49 0 84 19t35 62q0 17 -5.5 29.5t-19 20t-23.5 11.5t-33 6t-33 2h-37h-52v75l50 134q-214 22 -334.5 176t-120.5 425z" />
<glyph unicode="&#xc8;" horiz-adv-x="1147" d="M194 0v1365h809v-145h-650v-450h614v-144h-614v-481h650v-145h-809zM276 1715h190l253 -201h-173z" />
<glyph unicode="&#xc9;" horiz-adv-x="1147" d="M194 0v1365h809v-145h-650v-450h614v-144h-614v-481h650v-145h-809zM471 1514l253 201h190l-264 -201h-179z" />
<glyph unicode="&#xca;" horiz-adv-x="1147" d="M194 0v1365h809v-145h-650v-450h614v-144h-614v-481h650v-145h-809zM277 1503l282 244h99l271 -244h-163l-158 144h-5l-167 -144h-159z" />
<glyph unicode="&#xcb;" horiz-adv-x="1147" d="M194 0v1365h809v-145h-650v-450h614v-144h-614v-481h650v-145h-809zM318 1581q0 43 29.5 71t72.5 28q45 0 74.5 -28t29.5 -71q0 -42 -29.5 -70t-74.5 -28q-43 0 -72.5 28t-29.5 70zM666 1581q0 43 29 71t72 28q46 0 76 -28t30 -71q0 -42 -30 -70t-76 -28q-42 0 -71.5 28 t-29.5 70z" />
<glyph unicode="&#xcc;" horiz-adv-x="547" d="M-46 1715h190l253 -201h-173zM194 0v1365h159v-1365h-159z" />
<glyph unicode="&#xcd;" horiz-adv-x="547" d="M149 1514l253 201h190l-264 -201h-179zM194 0v1365h159v-1365h-159z" />
<glyph unicode="&#xce;" horiz-adv-x="547" d="M-45 1503l282 244h99l271 -244h-163l-158 144h-5l-167 -144h-159zM194 0v1365h159v-1365h-159z" />
<glyph unicode="&#xcf;" horiz-adv-x="547" d="M-4 1581q0 43 29.5 71t72.5 28q45 0 74.5 -28t29.5 -71q0 -42 -29.5 -70t-74.5 -28q-43 0 -72.5 28t-29.5 70zM194 0v1365h159v-1365h-159zM344 1581q0 43 29 71t72 28q46 0 76 -28t30 -71q0 -42 -30 -70t-76 -28q-42 0 -71.5 28t-29.5 70z" />
<glyph unicode="&#xd0;" horiz-adv-x="1415" d="M110 629v140h160v596h428q161 0 278 -50t186 -143t101.5 -214.5t32.5 -275.5q0 -120 -19 -220t-63 -187t-112 -147t-170.5 -94t-233.5 -34h-428v629h-160zM429 145h263q439 0 439 537q0 539 -439 539h-263v-452h317v-140h-317v-484z" />
<glyph unicode="&#xd1;" horiz-adv-x="1412" d="M194 0v1365h159l698 -1092h8v1092h159v-1365h-159l-699 1092h-7v-1092h-159zM407 1479q0 87 45 148t134 61q76 0 153 -74l15.5 -15.5l16 -16t14.5 -12t18 -9t20 -2.5q23 0 40 20t24.5 43.5t9.5 48.5h111q0 -80 -48.5 -145t-128.5 -65q-54 0 -88.5 17.5t-68.5 51.5l-8 8 l-8.5 8.5t-8.5 8t-9 8t-9 6.5t-10.5 6t-10 4.5t-11 3.5t-11.5 1q-21 0 -35 -9.5t-20.5 -27.5t-9.5 -32.5t-4 -35.5h-112z" />
<glyph unicode="&#xd2;" horiz-adv-x="1360" d="M140 573v205q0 288 147 452t394 164t393 -164t146 -452v-205q0 -286 -147 -444t-396 -158q-248 0 -392.5 158t-144.5 444zM299 573q0 -225 105 -340.5t275 -115.5q171 0 276.5 115.5t105.5 340.5v205q0 227 -106.5 349t-275.5 122q-168 0 -274 -122t-106 -349v-205z M360 1715h190l253 -201h-173z" />
<glyph unicode="&#xd3;" horiz-adv-x="1360" d="M140 573v205q0 288 147 452t394 164t393 -164t146 -452v-205q0 -286 -147 -444t-396 -158q-248 0 -392.5 158t-144.5 444zM299 573q0 -225 105 -340.5t275 -115.5q171 0 276.5 115.5t105.5 340.5v205q0 227 -106.5 349t-275.5 122q-168 0 -274 -122t-106 -349v-205z M555 1514l253 201h190l-264 -201h-179z" />
<glyph unicode="&#xd4;" horiz-adv-x="1360" d="M140 573v205q0 288 147 452t394 164t393 -164t146 -452v-205q0 -286 -147 -444t-396 -158q-248 0 -392.5 158t-144.5 444zM299 573q0 -225 105 -340.5t275 -115.5q171 0 276.5 115.5t105.5 340.5v205q0 227 -106.5 349t-275.5 122q-168 0 -274 -122t-106 -349v-205z M361 1503l282 244h99l271 -244h-163l-158 144h-5l-167 -144h-159z" />
<glyph unicode="&#xd5;" horiz-adv-x="1360" d="M140 573v205q0 288 147 452t394 164t393 -164t146 -452v-205q0 -286 -147 -444t-396 -158q-248 0 -392.5 158t-144.5 444zM299 573q0 -225 105 -340.5t275 -115.5q171 0 276.5 115.5t105.5 340.5v205q0 227 -106.5 349t-275.5 122q-168 0 -274 -122t-106 -349v-205z M381 1479q0 87 45 148t134 61q76 0 153 -74l15.5 -15.5l16 -16t14.5 -12t18 -9t20 -2.5q23 0 40 20t24.5 43.5t9.5 48.5h111q0 -80 -48.5 -145t-128.5 -65q-54 0 -88.5 17.5t-68.5 51.5l-8 8l-8.5 8.5t-8.5 8t-9 8t-9 6.5t-10.5 6t-10 4.5t-11 3.5t-11.5 1q-21 0 -35 -9.5 t-20.5 -27.5t-9.5 -32.5t-4 -35.5h-112z" />
<glyph unicode="&#xd6;" horiz-adv-x="1360" d="M140 573v205q0 288 147 452t394 164t393 -164t146 -452v-205q0 -286 -147 -444t-396 -158q-248 0 -392.5 158t-144.5 444zM299 573q0 -225 105 -340.5t275 -115.5q171 0 276.5 115.5t105.5 340.5v205q0 227 -106.5 349t-275.5 122q-168 0 -274 -122t-106 -349v-205z M402 1581q0 43 29.5 71t72.5 28q45 0 74.5 -28t29.5 -71q0 -42 -29.5 -70t-74.5 -28q-43 0 -72.5 28t-29.5 70zM750 1581q0 43 29 71t72 28q46 0 76 -28t30 -71q0 -42 -30 -70t-76 -28q-42 0 -71.5 28t-29.5 70z" />
<glyph unicode="&#xd7;" d="M158 170l314 314l-314 315l91 91l315 -315l314 315l91 -91l-314 -315l314 -314l-91 -92l-314 315l-315 -315z" />
<glyph unicode="&#xd8;" horiz-adv-x="1360" d="M101 68l120 149q-81 146 -81 356v205q0 288 147 452t394 164q229 0 373 -142l99 123l98 -70l-122 -151q91 -153 91 -376v-205q0 -286 -147 -444t-396 -158q-240 0 -381 146l-101 -126zM298 573q0 -124 34 -218l622 773q-104 121 -275 121q-168 0 -274.5 -122t-106.5 -349 v-205zM396 241q102 -124 283 -124q171 0 276.5 115.5t105.5 340.5v205q0 135 -41 239z" />
<glyph unicode="&#xd9;" horiz-adv-x="1380" d="M178 478v887h159v-891q0 -163 95.5 -260.5t257.5 -97.5t257.5 97.5t95.5 260.5v891h159v-891q0 -226 -141.5 -364.5t-370.5 -138.5q-228 0 -370 140.5t-142 366.5zM370 1715h190l253 -201h-173z" />
<glyph unicode="&#xda;" horiz-adv-x="1380" d="M178 478v887h159v-891q0 -163 95.5 -260.5t257.5 -97.5t257.5 97.5t95.5 260.5v891h159v-891q0 -226 -141.5 -364.5t-370.5 -138.5q-228 0 -370 140.5t-142 366.5zM565 1514l253 201h190l-264 -201h-179z" />
<glyph unicode="&#xdb;" horiz-adv-x="1380" d="M178 478v887h159v-891q0 -163 95.5 -260.5t257.5 -97.5t257.5 97.5t95.5 260.5v891h159v-891q0 -226 -141.5 -364.5t-370.5 -138.5q-228 0 -370 140.5t-142 366.5zM371 1503l282 244h99l271 -244h-163l-158 144h-5l-167 -144h-159z" />
<glyph unicode="&#xdc;" horiz-adv-x="1380" d="M178 478v887h159v-891q0 -163 95.5 -260.5t257.5 -97.5t257.5 97.5t95.5 260.5v891h159v-891q0 -226 -141.5 -364.5t-370.5 -138.5q-228 0 -370 140.5t-142 366.5zM412 1581q0 43 29.5 71t72.5 28q45 0 74.5 -28t29.5 -71q0 -42 -29.5 -70t-74.5 -28q-43 0 -72.5 28 t-29.5 70zM760 1581q0 43 29 71t72 28q46 0 76 -28t30 -71q0 -42 -30 -70t-76 -28q-42 0 -71.5 28t-29.5 70z" />
<glyph unicode="&#xdd;" horiz-adv-x="1131" d="M30 1365h183l347 -610h9l349 610h183l-457 -766v-599h-158v599zM441 1514l253 201h190l-264 -201h-179z" />
<glyph unicode="&#xde;" horiz-adv-x="1191" d="M194 0v1365h158v-268h311q197 0 313.5 -97t116.5 -282q0 -186 -116 -283t-314 -97h-310v-338h-159zM353 481h260q43 0 73.5 1.5t65.5 7.5t59.5 16t48 27.5t38 42t23 60.5t8.5 82q0 235 -272 235h-304v-472z" />
<glyph unicode="&#xdf;" horiz-adv-x="1266" d="M194 0v1044q0 181 110.5 286.5t301.5 106.5q185 1 299 -96t113 -254q0 -77 -28 -141t-70.5 -102t-85.5 -59.5t-81 -24.5v-12q72 0 140.5 -23t125.5 -66.5t92 -114.5t35 -159q0 -98 -40.5 -176.5t-108 -126.5t-151.5 -73.5t-175 -25.5q-82 0 -143 19v132q50 -19 144 -19 q45 0 87.5 8t84.5 27.5t73 49t50.5 76t19.5 105.5q0 127 -96 201.5t-259 74.5h-76v162h46q95 0 176.5 73t81.5 185q0 100 -68 162.5t-182 62.5q-257 0 -257 -275v-1027h-159z" />
<glyph unicode="&#xe0;" horiz-adv-x="1108" d="M123 305q0 140 95.5 223.5t271.5 83.5h280v107q0 104 -61 155t-172 51q-99 0 -150.5 -32.5t-70.5 -93.5h-153q12 132 112.5 199.5t268.5 67.5q82 0 149.5 -19t121.5 -58.5t84 -108t30 -160.5v-720h-152v141h-7q-99 -158 -305 -158q-153 0 -247.5 89t-94.5 233zM240 1577 h161l239 -354h-122zM285 308q0 -91 63.5 -140t156.5 -49q113 0 189 69t76 171v122h-277q-106 0 -157 -47t-51 -126z" />
<glyph unicode="&#xe1;" horiz-adv-x="1108" d="M123 305q0 140 95.5 223.5t271.5 83.5h280v107q0 104 -61 155t-172 51q-99 0 -150.5 -32.5t-70.5 -93.5h-153q12 132 112.5 199.5t268.5 67.5q82 0 149.5 -19t121.5 -58.5t84 -108t30 -160.5v-720h-152v141h-7q-99 -158 -305 -158q-153 0 -247.5 89t-94.5 233zM285 308 q0 -91 63.5 -140t156.5 -49q113 0 189 69t76 171v122h-277q-106 0 -157 -47t-51 -126zM525 1223l239 354h161l-278 -354h-122z" />
<glyph unicode="&#xe2;" horiz-adv-x="1108" d="M123 305q0 140 95.5 223.5t271.5 83.5h280v107q0 104 -61 155t-172 51q-99 0 -150.5 -32.5t-70.5 -93.5h-153q12 132 112.5 199.5t268.5 67.5q82 0 149.5 -19t121.5 -58.5t84 -108t30 -160.5v-720h-152v141h-7q-99 -158 -305 -158q-153 0 -247.5 89t-94.5 233zM253 1220 l249 382h101l239 -382h-137l-152 263h-3l-159 -263h-138zM285 308q0 -91 63.5 -140t156.5 -49q113 0 189 69t76 171v122h-277q-106 0 -157 -47t-51 -126z" />
<glyph unicode="&#xe3;" horiz-adv-x="1108" d="M123 305q0 140 95.5 223.5t271.5 83.5h280v107q0 104 -61 155t-172 51q-99 0 -150.5 -32.5t-70.5 -93.5h-153q12 132 112.5 199.5t268.5 67.5q82 0 149.5 -19t121.5 -58.5t84 -108t30 -160.5v-720h-152v141h-7q-99 -158 -305 -158q-153 0 -247.5 89t-94.5 233zM255 1169 q0 105 49 176t130 71q51 0 86.5 -18.5t66.5 -65.5q4 -6 13 -21t14 -21.5t14 -16t20 -13.5t24 -4q32 0 51 44.5t23 97.5h112q0 -95 -52 -171.5t-123 -76.5q-58 0 -94.5 20t-63.5 64q-13 21 -21.5 32.5t-26.5 23t-39 11.5q-63 0 -70 -132h-113zM285 308q0 -91 63.5 -140 t156.5 -49q113 0 189 69t76 171v122h-277q-106 0 -157 -47t-51 -126z" />
<glyph unicode="&#xe4;" horiz-adv-x="1108" d="M123 305q0 140 95.5 223.5t271.5 83.5h280v107q0 104 -61 155t-172 51q-99 0 -150.5 -32.5t-70.5 -93.5h-153q12 132 112.5 199.5t268.5 67.5q82 0 149.5 -19t121.5 -58.5t84 -108t30 -160.5v-720h-152v141h-7q-99 -158 -305 -158q-153 0 -247.5 89t-94.5 233zM272 1300 q0 44 31 73.5t75 29.5q45 0 76 -29.5t31 -73.5q0 -42 -31.5 -71.5t-75.5 -29.5t-75 29.5t-31 71.5zM285 308q0 -91 63.5 -140t156.5 -49q113 0 189 69t76 171v122h-277q-106 0 -157 -47t-51 -126zM630 1300q0 44 30.5 73.5t72.5 29.5q47 0 78.5 -29.5t31.5 -73.5 q0 -42 -32 -71.5t-78 -29.5q-42 0 -72.5 29.5t-30.5 71.5z" />
<glyph unicode="&#xe5;" horiz-adv-x="1108" d="M123 305q0 140 95.5 223.5t271.5 83.5h280v107q0 104 -61 155t-172 51q-99 0 -150.5 -32.5t-70.5 -93.5h-153q12 132 112.5 199.5t268.5 67.5q82 0 149.5 -19t121.5 -58.5t84 -108t30 -160.5v-720h-152v141h-7q-99 -158 -305 -158q-153 0 -247.5 89t-94.5 233zM285 308 q0 -91 63.5 -140t156.5 -49q113 0 189 69t76 171v122h-277q-106 0 -157 -47t-51 -126zM369 1379q0 77 54 129.5t132 52.5t132 -52.5t54 -129.5t-54 -129.5t-132 -52.5t-132 52.5t-54 129.5zM452 1379q0 -44 30 -74.5t73 -30.5t72.5 30.5t29.5 74.5t-29.5 74t-72.5 30 t-73 -30t-30 -74z" />
<glyph unicode="&#xe6;" horiz-adv-x="1747" d="M120 302q0 144 98 227t278 83h277v107q0 104 -61 155t-172 51q-189 0 -228 -126h-153q12 131 115.5 199t272.5 68q108 0 193 -35.5t127 -107.5h12q45 69 131.5 106t189.5 37q188 0 303 -125t115 -332v-128h-686v-83q0 -119 76 -197t204 -78q91 0 149.5 36t74.5 89h167 q-7 -43 -33 -87t-71.5 -85t-120 -67t-165.5 -26q-148 0 -246.5 59.5t-131.5 147.5h-13q-40 -87 -129 -147t-222 -60q-156 0 -253.5 86t-97.5 233zM278 308q0 -91 67 -140t162 -49q113 0 189.5 69t76.5 171v122h-274q-108 0 -164.5 -47.5t-56.5 -125.5zM932 603h528v27 q0 138 -69.5 218t-190.5 80q-115 0 -191.5 -80.5t-76.5 -205.5v-39z" />
<glyph unicode="&#xe7;" horiz-adv-x="1076" d="M132 434v184q0 204 116 326t314 122q93 0 169.5 -27t123.5 -72t73 -98.5t28 -109.5h-157q-5 27 -18 52t-38 53.5t-71.5 46t-107.5 17.5q-134 0 -205 -85.5t-71 -231.5v-179q0 -140 74 -221t202 -81q205 0 243 147h157q-5 -107 -90.5 -191t-244.5 -100l-46 -126 q100 0 157.5 -40.5t57.5 -119.5q0 -89 -61 -135.5t-158 -51.5q-82 -4 -151 15v102q47 -14 117 -14q49 0 84 19t35 62q0 17 -5.5 29.5t-19 20t-23.5 11.5t-33 6t-33 2h-37h-52v75l53 144q-178 15 -280 135t-102 314z" />
<glyph unicode="&#xe8;" horiz-adv-x="1112" d="M132 439v170q0 206 119 331.5t308 125.5t308 -125.5t119 -331.5v-128h-696v-53q0 -133 73.5 -219t207.5 -86q91 0 154 36.5t79 88.5h167q-7 -43 -34.5 -87t-74.5 -85t-123 -67t-167 -26q-207 0 -323.5 123.5t-116.5 332.5zM242 1577h161l239 -354h-122zM290 603h538v19 q0 138 -74 222t-195 84t-195 -84t-74 -222v-19z" />
<glyph unicode="&#xe9;" horiz-adv-x="1112" d="M132 439v170q0 206 119 331.5t308 125.5t308 -125.5t119 -331.5v-128h-696v-53q0 -133 73.5 -219t207.5 -86q91 0 154 36.5t79 88.5h167q-7 -43 -34.5 -87t-74.5 -85t-123 -67t-167 -26q-207 0 -323.5 123.5t-116.5 332.5zM290 603h538v19q0 138 -74 222t-195 84 t-195 -84t-74 -222v-19zM527 1223l239 354h161l-278 -354h-122z" />
<glyph unicode="&#xea;" horiz-adv-x="1112" d="M132 439v170q0 206 119 331.5t308 125.5t308 -125.5t119 -331.5v-128h-696v-53q0 -133 73.5 -219t207.5 -86q91 0 154 36.5t79 88.5h167q-7 -43 -34.5 -87t-74.5 -85t-123 -67t-167 -26q-207 0 -323.5 123.5t-116.5 332.5zM255 1220l249 382h101l239 -382h-137l-152 263 h-3l-159 -263h-138zM290 603h538v19q0 138 -74 222t-195 84t-195 -84t-74 -222v-19z" />
<glyph unicode="&#xeb;" horiz-adv-x="1112" d="M132 439v170q0 206 119 331.5t308 125.5t308 -125.5t119 -331.5v-128h-696v-53q0 -133 73.5 -219t207.5 -86q91 0 154 36.5t79 88.5h167q-7 -43 -34.5 -87t-74.5 -85t-123 -67t-167 -26q-207 0 -323.5 123.5t-116.5 332.5zM274 1300q0 44 31 73.5t75 29.5q45 0 76 -29.5 t31 -73.5q0 -42 -31.5 -71.5t-75.5 -29.5t-75 29.5t-31 71.5zM290 603h538v19q0 138 -74 222t-195 84t-195 -84t-74 -222v-19zM632 1300q0 44 30.5 73.5t72.5 29.5q47 0 78.5 -29.5t31.5 -73.5q0 -42 -32 -71.5t-78 -29.5q-42 0 -72.5 29.5t-30.5 71.5z" />
<glyph unicode="&#xec;" horiz-adv-x="578" d="M-25 1577h161l239 -354h-122zM210 0v1049h157v-1049h-157z" />
<glyph unicode="&#xed;" horiz-adv-x="578" d="M210 0v1049h157v-1049h-157zM260 1223l239 354h161l-278 -354h-122z" />
<glyph unicode="&#xee;" horiz-adv-x="578" d="M-12 1220l249 382h101l239 -382h-137l-152 263h-3l-159 -263h-138zM210 0v1049h157v-1049h-157z" />
<glyph unicode="&#xef;" horiz-adv-x="578" d="M7 1300q0 44 31 73.5t75 29.5q45 0 76 -29.5t31 -73.5q0 -42 -31.5 -71.5t-75.5 -29.5t-75 29.5t-31 71.5zM210 0v1049h157v-1049h-157zM365 1300q0 44 30.5 73.5t72.5 29.5q47 0 78.5 -29.5t31.5 -73.5q0 -42 -32 -71.5t-78 -29.5q-42 0 -72.5 29.5t-30.5 71.5z" />
<glyph unicode="&#xf0;" horiz-adv-x="1155" d="M132 442v107q0 207 126 332.5t320 125.5q180 0 278 -125h8l-10 65q-10 64 -46.5 138t-86.5 134l-284 -101l-30 94l241 84q-85 79 -188 140l96 99q135 -68 243 -186l245 86l34 -88l-213 -76q79 -109 118.5 -241t39.5 -259v-329q0 -214 -125 -336.5t-320 -122.5 q-199 0 -322.5 121.5t-123.5 337.5zM288 459q0 -155 77 -245.5t213 -90.5q135 0 211 90t76 246v86q0 157 -76.5 240.5t-210.5 83.5q-131 0 -210.5 -93t-79.5 -244v-73z" />
<glyph unicode="&#xf1;" horiz-adv-x="1206" d="M184 0v1049h157v-192h8q68 209 320 209q164 0 261 -88t97 -258v-720h-158v671q0 126 -61.5 192.5t-175.5 66.5q-142 0 -216.5 -96t-74.5 -246v-588h-157zM304 1169q0 105 49 176t130 71q51 0 86.5 -18.5t66.5 -65.5q4 -6 13 -21t14 -21.5t14 -16t20 -13.5t24 -4 q32 0 51 44.5t23 97.5h112q0 -95 -52 -171.5t-123 -76.5q-58 0 -94.5 20t-63.5 64q-13 21 -21.5 32.5t-26.5 23t-39 11.5q-63 0 -70 -132h-113z" />
<glyph unicode="&#xf2;" horiz-adv-x="1155" d="M132 442v166q0 207 126 332.5t320 125.5q195 0 320 -122.5t125 -335.5v-166q0 -214 -125 -336.5t-320 -122.5q-199 0 -322.5 121.5t-123.5 337.5zM264 1577h161l239 -354h-122zM288 459q0 -155 77 -245.5t213 -90.5q135 0 211 90t76 246v132q0 152 -78 244.5t-209 92.5 t-210.5 -93t-79.5 -244v-132z" />
<glyph unicode="&#xf3;" horiz-adv-x="1155" d="M132 442v166q0 207 126 332.5t320 125.5q195 0 320 -122.5t125 -335.5v-166q0 -214 -125 -336.5t-320 -122.5q-199 0 -322.5 121.5t-123.5 337.5zM288 459q0 -155 77 -245.5t213 -90.5q135 0 211 90t76 246v132q0 152 -78 244.5t-209 92.5t-210.5 -93t-79.5 -244v-132z M549 1223l239 354h161l-278 -354h-122z" />
<glyph unicode="&#xf4;" horiz-adv-x="1155" d="M132 442v166q0 207 126 332.5t320 125.5q195 0 320 -122.5t125 -335.5v-166q0 -214 -125 -336.5t-320 -122.5q-199 0 -322.5 121.5t-123.5 337.5zM277 1220l249 382h101l239 -382h-137l-152 263h-3l-159 -263h-138zM288 459q0 -155 77 -245.5t213 -90.5q135 0 211 90 t76 246v132q0 152 -78 244.5t-209 92.5t-210.5 -93t-79.5 -244v-132z" />
<glyph unicode="&#xf5;" horiz-adv-x="1155" d="M132 442v166q0 207 126 332.5t320 125.5q195 0 320 -122.5t125 -335.5v-166q0 -214 -125 -336.5t-320 -122.5q-199 0 -322.5 121.5t-123.5 337.5zM279 1169q0 105 49 176t130 71q51 0 86.5 -18.5t66.5 -65.5q4 -6 13 -21t14 -21.5t14 -16t20 -13.5t24 -4q32 0 51 44.5 t23 97.5h112q0 -95 -52 -171.5t-123 -76.5q-58 0 -94.5 20t-63.5 64q-13 21 -21.5 32.5t-26.5 23t-39 11.5q-63 0 -70 -132h-113zM288 459q0 -155 77 -245.5t213 -90.5q135 0 211 90t76 246v132q0 152 -78 244.5t-209 92.5t-210.5 -93t-79.5 -244v-132z" />
<glyph unicode="&#xf6;" horiz-adv-x="1155" d="M132 442v166q0 207 126 332.5t320 125.5q195 0 320 -122.5t125 -335.5v-166q0 -214 -125 -336.5t-320 -122.5q-199 0 -322.5 121.5t-123.5 337.5zM288 459q0 -155 77 -245.5t213 -90.5q135 0 211 90t76 246v132q0 152 -78 244.5t-209 92.5t-210.5 -93t-79.5 -244v-132z M296 1300q0 44 31 73.5t75 29.5q45 0 76 -29.5t31 -73.5q0 -42 -31.5 -71.5t-75.5 -29.5t-75 29.5t-31 71.5zM654 1300q0 44 30.5 73.5t72.5 29.5q47 0 78.5 -29.5t31.5 -73.5q0 -42 -32 -71.5t-78 -29.5q-42 0 -72.5 29.5t-30.5 71.5z" />
<glyph unicode="&#xf7;" d="M90 480v129h949v-129h-949zM439 932q0 55 36.5 92t88.5 37q56 0 93 -37t37 -92q0 -53 -37.5 -89t-92.5 -36q-52 0 -88.5 36t-36.5 89zM444 167q0 55 36.5 92t88.5 37q56 0 93 -37t37 -92q0 -53 -37.5 -89t-92.5 -36q-52 0 -88.5 36t-36.5 89z" />
<glyph unicode="&#xf8;" horiz-adv-x="1155" d="M125 -14l108 153q-101 123 -101 303v166q0 207 126 332.5t320 125.5q142 0 256 -78l100 141l92 -69l-106 -150q103 -126 103 -302v-166q0 -214 -125 -336.5t-320 -122.5q-146 0 -258 77l-100 -141zM284 429q0 -97 36 -167l436 616q-73 54 -178 54q-131 0 -212.5 -95 t-81.5 -246v-162zM398 171q72 -52 180 -52q135 0 213 92.5t78 247.5v162q0 93 -36 165z" />
<glyph unicode="&#xf9;" horiz-adv-x="1200" d="M176 316v733h158v-693q0 -126 65 -181.5t174 -55.5q120 0 202.5 76.5t82.5 180.5v673h158v-1049h-158v174h-9q-26 -76 -106 -133.5t-206 -57.5q-168 0 -264.5 80t-96.5 253zM286 1577h161l239 -354h-122z" />
<glyph unicode="&#xfa;" horiz-adv-x="1200" d="M176 316v733h158v-693q0 -126 65 -181.5t174 -55.5q120 0 202.5 76.5t82.5 180.5v673h158v-1049h-158v174h-9q-26 -76 -106 -133.5t-206 -57.5q-168 0 -264.5 80t-96.5 253zM571 1223l239 354h161l-278 -354h-122z" />
<glyph unicode="&#xfb;" horiz-adv-x="1200" d="M176 316v733h158v-693q0 -126 65 -181.5t174 -55.5q120 0 202.5 76.5t82.5 180.5v673h158v-1049h-158v174h-9q-26 -76 -106 -133.5t-206 -57.5q-168 0 -264.5 80t-96.5 253zM299 1220l249 382h101l239 -382h-137l-152 263h-3l-159 -263h-138z" />
<glyph unicode="&#xfc;" horiz-adv-x="1200" d="M176 316v733h158v-693q0 -126 65 -181.5t174 -55.5q120 0 202.5 76.5t82.5 180.5v673h158v-1049h-158v174h-9q-26 -76 -106 -133.5t-206 -57.5q-168 0 -264.5 80t-96.5 253zM318 1300q0 44 31 73.5t75 29.5q45 0 76 -29.5t31 -73.5q0 -42 -31.5 -71.5t-75.5 -29.5 t-75 29.5t-31 71.5zM676 1300q0 44 30.5 73.5t72.5 29.5q47 0 78.5 -29.5t31.5 -73.5q0 -42 -32 -71.5t-78 -29.5q-42 0 -72.5 29.5t-30.5 71.5z" />
<glyph unicode="&#xfd;" horiz-adv-x="1080" d="M65 1049h175l293 -886h7l293 886h167l-379 -1060l-27 -73q-20 -54 -36.5 -90.5t-45.5 -80t-62 -69.5t-83 -43.5t-111 -17.5q-49 0 -101 8v133q27 -5 76 -5q89 0 136 42.5t72 129.5l17 60zM511 1223l239 354h161l-278 -354h-122z" />
<glyph unicode="&#xfe;" horiz-adv-x="1197" d="M183 1437h149l2 -554h8q30 78 111.5 130.5t205.5 52.5q184 0 294 -119.5t110 -325.5v-192q0 -207 -112 -326.5t-299 -119.5q-121 0 -195 48t-107 123h-8v-521h-157zM342 416q0 -128 79.5 -210.5t208.5 -82.5q126 0 201 86.5t75 256.5v117q0 167 -74 256t-207 89t-208 -85 t-75 -231v-196z" />
<glyph unicode="&#xff;" horiz-adv-x="1080" d="M65 1049h175l293 -886h7l293 886h167l-379 -1060l-27 -73q-20 -54 -36.5 -90.5t-45.5 -80t-62 -69.5t-83 -43.5t-111 -17.5q-49 0 -101 8v133q27 -5 76 -5q89 0 136 42.5t72 129.5l17 60zM258 1300q0 44 31 73.5t75 29.5q45 0 76 -29.5t31 -73.5q0 -42 -31.5 -71.5 t-75.5 -29.5t-75 29.5t-31 71.5zM616 1300q0 44 30.5 73.5t72.5 29.5q47 0 78.5 -29.5t31.5 -73.5q0 -42 -32 -71.5t-78 -29.5q-42 0 -72.5 29.5t-30.5 71.5z" />
<glyph unicode="&#x152;" horiz-adv-x="2007" d="M140 573v205q0 288 147 452t394 164q118 0 217.5 -42t152.5 -125h13v138h799v-145h-640v-450h604v-144h-604v-481h640v-145h-799v144h-12q-56 -83 -157 -128t-218 -45q-248 0 -392.5 158t-144.5 444zM298 573q0 -225 105.5 -340.5t275.5 -115.5q173 0 279 109.5 t106 332.5v241q0 224 -106.5 336.5t-278.5 112.5q-168 0 -274.5 -122t-106.5 -349v-205z" />
<glyph unicode="&#x153;" horiz-adv-x="1848" d="M132 442v166q0 207 126 332.5t320 125.5q249 0 359 -183h11q51 84 143 133.5t201 49.5q189 0 308 -125.5t119 -331.5v-128h-696v-53q0 -133 73.5 -219t207.5 -86q91 0 154 36.5t79 88.5h167q-7 -43 -34.5 -87t-74.5 -85t-123 -67t-167 -26q-119 0 -214 50t-143 135h-12 q-52 -85 -148 -135t-210 -50q-199 0 -322.5 121.5t-123.5 337.5zM288 459q0 -155 77 -245.5t213 -90.5q135 0 211 90t76 246v132q0 152 -78 244.5t-209 92.5t-210.5 -93t-79.5 -244v-132zM1023 603h538v19q0 138 -74 222t-195 84t-195 -84t-74 -222v-19z" />
<glyph unicode="&#x178;" horiz-adv-x="1131" d="M30 1365h183l347 -610h9l349 610h183l-457 -766v-599h-158v599zM288 1581q0 43 29.5 71t72.5 28q45 0 74.5 -28t29.5 -71q0 -42 -29.5 -70t-74.5 -28q-43 0 -72.5 28t-29.5 70zM636 1581q0 43 29 71t72 28q46 0 76 -28t30 -71q0 -42 -30 -70t-76 -28q-42 0 -71.5 28 t-29.5 70z" />
<glyph unicode="&#x2c6;" horiz-adv-x="1000" d="M219 1207l249 382h101l239 -382h-137l-152 263h-3l-159 -263h-138z" />
<glyph unicode="&#x2dc;" horiz-adv-x="1000" d="M191 1246q0 105 49 176t130 71q51 0 86.5 -18.5t66.5 -65.5q4 -6 13 -21t14 -21.5t14 -16t20 -13.5t24 -4q32 0 51 44.5t23 97.5h112q0 -95 -52 -171.5t-123 -76.5q-58 0 -94.5 20t-63.5 64q-13 21 -21.5 32.5t-26.5 23t-39 11.5q-63 0 -70 -132h-113z" />
<glyph unicode="&#x2000;" horiz-adv-x="873" />
<glyph unicode="&#x2001;" horiz-adv-x="1747" />
<glyph unicode="&#x2002;" horiz-adv-x="873" />
<glyph unicode="&#x2003;" horiz-adv-x="1747" />
<glyph unicode="&#x2004;" horiz-adv-x="582" />
<glyph unicode="&#x2005;" horiz-adv-x="436" />
<glyph unicode="&#x2006;" horiz-adv-x="291" />
<glyph unicode="&#x2007;" horiz-adv-x="291" />
<glyph unicode="&#x2008;" horiz-adv-x="218" />
<glyph unicode="&#x2009;" horiz-adv-x="349" />
<glyph unicode="&#x200a;" horiz-adv-x="97" />
<glyph unicode="&#x2010;" horiz-adv-x="840" d="M105 490v140h630v-140h-630z" />
<glyph unicode="&#x2011;" horiz-adv-x="840" d="M105 490v140h630v-140h-630z" />
<glyph unicode="&#x2012;" horiz-adv-x="840" d="M105 490v140h630v-140h-630z" />
<glyph unicode="&#x2013;" horiz-adv-x="1206" d="M0 490v140h1206v-140h-1206z" />
<glyph unicode="&#x2014;" horiz-adv-x="2048" d="M0 490v140h2048v-140h-2048z" />
<glyph unicode="&#x2018;" horiz-adv-x="640" d="M160 824l187 541h133l-125 -541h-195z" />
<glyph unicode="&#x2019;" horiz-adv-x="640" d="M160 824l125 541h195l-187 -541h-133z" />
<glyph unicode="&#x201a;" horiz-adv-x="640" d="M160 -434l125 541h195l-187 -541h-133z" />
<glyph unicode="&#x201c;" horiz-adv-x="1000" d="M160 824l124 541h145l-85 -541h-184zM576 824l124 541h140l-79 -541h-185z" />
<glyph unicode="&#x201d;" horiz-adv-x="1000" d="M160 824l79 541h185l-124 -541h-140zM571 824l85 541h184l-124 -541h-145z" />
<glyph unicode="&#x201e;" horiz-adv-x="1000" d="M160 -434l79 541h185l-124 -541h-140zM571 -434l85 541h184l-124 -541h-145z" />
<glyph unicode="&#x2022;" horiz-adv-x="983" d="M192 599q0 123 87 210t209 87t209.5 -87t87.5 -210q0 -122 -87.5 -209t-209.5 -87t-209 87t-87 209z" />
<glyph unicode="&#x2026;" horiz-adv-x="1550" d="M161 116q0 59 39 98t94 39q59 0 98.5 -39t39.5 -98q0 -56 -39.5 -94.5t-98.5 -38.5q-55 0 -94 38.5t-39 94.5zM634 116q0 59 39 98t94 39q59 0 98.5 -39t39.5 -98q0 -56 -39.5 -94.5t-98.5 -38.5q-55 0 -94 38.5t-39 94.5zM1107 116q0 59 39 98t94 39q59 0 98.5 -39 t39.5 -98q0 -56 -39.5 -94.5t-98.5 -38.5q-55 0 -94 38.5t-39 94.5z" />
<glyph unicode="&#x202f;" horiz-adv-x="349" />
<glyph unicode="&#x2039;" horiz-adv-x="839" d="M140 557v8l344 404h185l-339 -403v-6l339 -405h-194z" />
<glyph unicode="&#x203a;" horiz-adv-x="839" d="M140 155l339 405v6l-339 403h185l344 -404v-8l-335 -402h-194z" />
<glyph unicode="&#x205f;" horiz-adv-x="436" />
<glyph unicode="&#x20ac;" d="M60 466v126h120v164h-120v126h122q12 259 123.5 385.5t334.5 126.5q96 0 171.5 -27t123 -71t78 -105t42.5 -123t12 -131h-158q0 312 -269 312q-150 0 -220 -86t-80 -281h374v-126h-376v-164h376v-126h-374q9 -194 77 -271.5t222 -77.5q81 0 136.5 22.5t83.5 64.5t39 89 t11 110h158q0 -61 -10.5 -117t-40 -115t-76 -102t-124 -70.5t-178.5 -27.5q-227 0 -336 117t-120 378h-122z" />
<glyph unicode="&#x2122;" horiz-adv-x="1800" d="M99 1262v103h604v-103h-244v-587h-119v587h-241zM886 675v690h118l250 -490h9l249 490h118v-690h-103v484h-10l-223 -431h-72l-223 431h-9v-484h-104z" />
<glyph unicode="&#x25fc;" horiz-adv-x="1050" d="M0 0v1050h1050v-1050h-1050z" />
<glyph unicode="&#xfb01;" horiz-adv-x="1352" d="M95 915v134h178v105q0 151 76 222t244 71q58 0 112 -6v-133q-32 4 -93 4q-99 0 -140.5 -36.5t-41.5 -133.5v-93h245v-134h-245v-915h-157v915h-178zM944 1376q0 51 34 85t83 34q52 0 86 -33.5t34 -85.5q0 -50 -34 -83.5t-86 -33.5q-49 0 -83 33.5t-34 83.5zM984 0v1049 h157v-1049h-157z" />
<glyph unicode="&#xfb02;" horiz-adv-x="1317" d="M95 915v134h178v105q0 151 76 222t244 71q58 0 112 -6v-133q-32 4 -93 4q-99 0 -140.5 -36.5t-41.5 -133.5v-93h245v-134h-245v-915h-157v915h-178zM970 0v1437h157v-1437h-157z" />
</font>
</defs>
</svg>
