<?xml version="1.0" standalone="no"?>
<!DOCTYPE svg PUBLIC "-//W3C//DTD SVG 1.1//EN" "http://www.w3.org/Graphics/SVG/1.1/DTD/svg11.dtd" >
<svg xmlns="http://www.w3.org/2000/svg">
<metadata></metadata>
<defs>
<font id="san_francisco_textmedium" horiz-adv-x="1167" >
<font-face units-per-em="2048" ascent="1638" descent="-410" />
<missing-glyph horiz-adv-x="461" />
<glyph horiz-adv-x="0" />
<glyph unicode="&#xd;" horiz-adv-x="0" />
<glyph unicode=" "  horiz-adv-x="461" />
<glyph unicode="&#x09;" horiz-adv-x="461" />
<glyph unicode="&#xa0;" horiz-adv-x="461" />
<glyph unicode="!" horiz-adv-x="583" d="M138 126q0 65 43 106.5t108 41.5q68 0 111.5 -41.5t43.5 -106.5q0 -63 -43.5 -103.5t-111.5 -40.5q-65 0 -108 40.5t-43 103.5zM181 1365h225l-24 -888h-177z" />
<glyph unicode="&#x22;" horiz-adv-x="908" d="M133 1365h223l-29 -525h-165zM552 1365h223l-29 -525h-165z" />
<glyph unicode="#" horiz-adv-x="1256" d="M79 379l32 165h203l61 290h-193l31 164h194l74 367h160l-76 -367h269l75 367h158l-75 -367h214l-30 -164h-216l-61 -290h203l-31 -165h-204l-77 -379h-158l77 379h-269l-77 -379h-159l77 379h-202zM463 533h283l65 312h-283z" />
<glyph unicode="$" d="M89 382h184q6 -86 69.5 -144.5t176.5 -73.5v460l-77 20q-65 16 -119.5 43.5t-101.5 69.5t-73.5 105t-26.5 141q0 85 30.5 153.5t85 115t125.5 74.5t156 36v131h137v-131q173 -17 284.5 -117.5t115.5 -257.5h-181q-2 80 -61 138t-159 71v-433l81 -19q167 -41 255.5 -127.5 t88.5 -243.5q0 -175 -116.5 -276.5t-307.5 -117.5v-128h-138l1 126q-208 16 -317.5 125.5t-111.5 259.5zM306 1017q0 -127 161 -185q40 -12 52 -15v399q-95 -11 -154 -62.5t-59 -136.5zM654 163q109 9 175 65.5t66 148.5q0 76 -47.5 126t-163.5 83q-5 2 -16 4.5t-14 3.5 v-431z" />
<glyph unicode="%" horiz-adv-x="1447" d="M41 1018v29q0 142 76.5 236.5t206.5 94.5t206.5 -94.5t76.5 -239.5v-28q0 -142 -77 -238.5t-209 -96.5q-130 0 -205 95.5t-75 241.5zM116 0l533 698l511 667h166l-530 -693l-513 -672h-167zM181 1028q0 -98 37.5 -156.5t104.5 -58.5t105 57.5t38 155.5v9q0 98 -37 155 t-105 57q-69 0 -106 -57.5t-37 -152.5v-9zM842 325v28q0 142 76.5 237t206.5 95t206.5 -95t76.5 -239v-29q0 -141 -76.5 -237.5t-208.5 -96.5q-130 0 -205.5 95.5t-75.5 241.5zM983 335q0 -99 37.5 -157t104.5 -58q66 0 104 57.5t38 154.5v9q0 99 -36.5 156t-104.5 57 q-70 0 -106.5 -57.5t-36.5 -152.5v-9z" />
<glyph unicode="&#x26;" horiz-adv-x="1370" d="M105 358q0 125 68.5 213.5t193.5 156.5q30 18 54 29q-82 87 -125 157.5t-43 154.5q0 131 100.5 219.5t254.5 88.5q151 0 253 -84.5t102 -223.5q0 -61 -22 -113.5t-64.5 -95t-89 -74.5t-110.5 -65l311 -329q59 104 59 329v53h178v-60q0 -294 -111 -458l240 -256h-240 l-119 124q-91 -77 -203.5 -114t-225.5 -37q-201 0 -331 104.5t-130 280.5zM298 373q0 -112 83.5 -173t202.5 -61q81 0 163 28.5t137 84.5l-361 385q-21 -8 -43 -21q-88 -46 -135 -104t-47 -139zM436 1058q0 -52 30.5 -102t108.5 -126q104 51 156 102.5t52 126.5 q0 74 -49 119.5t-125 45.5q-77 0 -125 -46.5t-48 -119.5z" />
<glyph unicode="'" horiz-adv-x="489" d="M133 1365h223l-29 -525h-165z" />
<glyph unicode="(" horiz-adv-x="675" d="M147 566q0 127 17 238t40.5 187.5t62.5 152t69 119t75 100.5h174q-35 -40 -71 -104t-75.5 -161.5t-64 -237t-24.5 -292.5q0 -124 17.5 -240.5t38.5 -194.5t59.5 -166t59 -125.5t58.5 -103.5h-182q-46 56 -85.5 125t-80 170.5t-64.5 239.5t-24 293z" />
<glyph unicode=")" horiz-adv-x="675" d="M89 1363h173q45 -57 75 -100t70 -119t63.5 -152.5t40.5 -187.5t17 -238q0 -155 -24.5 -293t-66 -239.5t-81 -170t-85.5 -125.5h-180q39 67 58.5 103.5t58.5 125.5t59.5 166t38 194t17.5 241q0 153 -24.5 292.5t-64 237t-75 161.5t-70.5 104z" />
<glyph unicode="*" horiz-adv-x="984" d="M98 853l291 136l-291 135l75 138l266 -184l-25 320h151l-24 -320l266 184l75 -138l-291 -135l291 -136l-75 -138l-266 182l24 -318h-151l25 318l-266 -182z" />
<glyph unicode="+" d="M96 456v181h403v415h169v-415h405v-181h-405v-436h-169v436h-403z" />
<glyph unicode="," horiz-adv-x="510" d="M40 -363l128 582h221l-191 -582h-158z" />
<glyph unicode="-" horiz-adv-x="840" d="M105 464v192h630v-192h-630z" />
<glyph unicode="." horiz-adv-x="605" d="M150 134q0 68 44 112t107 44q66 0 110 -43.5t44 -112.5q0 -67 -44 -109.5t-110 -42.5q-63 0 -107 43t-44 109z" />
<glyph unicode="/" horiz-adv-x="743" d="M38 -299l489 1736h180l-490 -1736h-179z" />
<glyph unicode="0" horiz-adv-x="1258" d="M133 654v55q0 311 132 497t366 186q233 0 363 -185t130 -498v-55q0 -201 -56 -353.5t-169.5 -240.5t-270.5 -88q-233 0 -364 185.5t-131 496.5zM339 656q0 -235 78 -366.5t212 -131.5t212.5 131.5t78.5 366.5v52q0 235 -78.5 366.5t-212.5 131.5t-212 -131.5t-78 -366.5 v-52z" />
<glyph unicode="1" horiz-adv-x="944" d="M153 916v212l325 237h203v-1365h-203v1141h-10z" />
<glyph unicode="2" horiz-adv-x="1161" d="M142 973v10q0 79 28.5 151.5t82 130.5t139.5 92.5t192 34.5q195 0 316 -106.5t121 -270.5q0 -52 -14 -102t-30.5 -85t-55.5 -86.5t-60.5 -76t-74.5 -83.5l-349 -384v-12h608v-186h-897v138l510 565q36 39 57.5 65.5t47 65.5t38 79.5t12.5 82.5q0 96 -66 154.5t-168 58.5 q-109 0 -174 -65.5t-65 -159.5v-11h-198z" />
<glyph unicode="3" horiz-adv-x="1184" d="M106 336h191q8 -78 84.5 -130.5t188.5 -53.5q128 -1 206 65t76 169q-1 101 -77 164.5t-197 63.5h-149v179h142q103 0 171 60.5t67 153.5q0 91 -67 149t-172 58q-101 0 -167 -53.5t-72 -128.5h-194q5 152 120 255.5t316 104.5q196 1 316.5 -98.5t124.5 -252.5 q2 -69 -22.5 -129t-64 -98.5t-82.5 -62.5t-83 -31v-12q47 -5 95.5 -26.5t94.5 -59.5t76 -101t31 -141q3 -182 -137 -295t-355 -113q-205 0 -329.5 104t-131.5 260z" />
<glyph unicode="4" horiz-adv-x="1218" d="M101 268v188q59 107 135.5 234t131 214.5t151 239.5t139.5 221h301v-912h175v-185h-175v-268h-195v268h-663zM299 453h465v734h-11q-277 -415 -454 -725v-9z" />
<glyph unicode="5" horiz-adv-x="1210" d="M149 332h194q18 -88 94.5 -133t175.5 -45q111 0 194.5 78.5t83.5 212.5q0 121 -82 195.5t-198 74.5q-93 0 -159 -42t-98 -97h-176l60 791h787v-185h-616l-35 -406h10q28 42 100.5 79t174.5 37q185 0 310.5 -119t125.5 -322q0 -215 -136 -347t-355 -132q-194 0 -320 102 t-135 258z" />
<glyph unicode="6" horiz-adv-x="1240" d="M133 637q0 375 141 564t383 189q96 0 177.5 -28.5t134 -75t83.5 -103t35 -115.5h-203q-14 55 -73.5 98t-159.5 43q-143 0 -231 -138t-87 -386h11q34 81 121 139.5t222 58.5q82 0 157.5 -28.5t136.5 -81.5t97.5 -138t36.5 -188q0 -221 -134 -347.5t-345 -126.5 q-271 0 -402 213q-101 168 -101 451zM360 437q0 -130 80 -206.5t198 -76.5q121 0 198.5 72.5t77.5 209.5q0 130 -80.5 201t-194.5 71q-122 0 -200.5 -76t-78.5 -195z" />
<glyph unicode="7" horiz-adv-x="1109" d="M115 1179v186h890v-192l-558 -1173h-216l566 1167v12h-682z" />
<glyph unicode="8" horiz-adv-x="1241" d="M124 373q0 77 26.5 140t70 103t89 64t93.5 35v11q-41 13 -78.5 37t-71.5 60t-54.5 89.5t-20.5 116.5q0 158 124.5 260.5t318.5 102.5t319 -102.5t125 -260.5q0 -64 -21 -118t-56 -90t-72 -59t-77 -36v-11q48 -11 94 -35t89 -64t69 -102.5t26 -138.5q0 -178 -139.5 -290.5 t-360.5 -112.5q-219 0 -356 111.5t-137 289.5zM327 386q0 -108 83.5 -175.5t210.5 -67.5t211 67.5t84 175.5t-84 176t-211 68t-210.5 -68t-83.5 -176zM376 1009q0 -95 69.5 -155.5t175.5 -60.5q107 0 176 60.5t69 155.5q0 94 -69 152.5t-176 58.5t-176 -58.5t-69 -152.5z " />
<glyph unicode="9" horiz-adv-x="1239" d="M125 929q0 142 64 248.5t172.5 161.5t246.5 55q79 0 147.5 -19t134 -67.5t112 -124t75 -196.5t28.5 -277q0 -735 -525 -735q-95 0 -173.5 25.5t-129 69t-80.5 97.5t-37 113h203q15 -51 73.5 -88t147.5 -37q88 0 153.5 40.5t103 113t54 164.5t13.5 203h-12 q-34 -87 -119.5 -144.5t-214.5 -57.5q-121 0 -219.5 52.5t-158 157t-59.5 245.5zM327 929q0 -134 78.5 -206.5t195.5 -72.5q115 0 194.5 72t79.5 203q0 135 -78 212t-200 77q-115 0 -192.5 -77.5t-77.5 -207.5z" />
<glyph unicode=":" horiz-adv-x="637" d="M166 134q0 69 43.5 112.5t106.5 43.5q67 0 111 -43.5t44 -112.5q0 -67 -44 -109.5t-111 -42.5q-63 0 -106.5 43t-43.5 109zM166 804q0 69 43.5 112.5t106.5 43.5q67 0 111 -44t44 -112q0 -67 -44 -110t-111 -43q-63 0 -106.5 43.5t-43.5 109.5z" />
<glyph unicode=";" horiz-adv-x="636" d="M55 -411l142 617h242l-212 -617h-172zM167 808q0 68 43.5 112t107.5 44q66 0 110 -44t44 -112q0 -67 -44 -110t-110 -43q-63 0 -107 43t-44 110z" />
<glyph unicode="&#x3c;" d="M145 440v157l876 513v-223l-656 -357v-11l656 -342v-221z" />
<glyph unicode="=" d="M151 265v172h866v-172h-866zM151 658v174h866v-174h-866z" />
<glyph unicode="&#x3e;" d="M145 -44v221l657 342v11l-657 357v223l877 -513v-157z" />
<glyph unicode="?" horiz-adv-x="1010" d="M85 997q-1 86 24 155t66.5 113.5t98 74.5t115.5 42.5t122 12.5q82 0 155 -22t131.5 -64t92.5 -111t34 -155q0 -60 -15.5 -110t-48 -90t-59.5 -64.5t-72 -58.5q-53 -41 -75.5 -60t-45.5 -47.5t-30 -57t-7 -70.5v-57h-191l-1 74q-3 100 46.5 172t140.5 141q43 33 64 50.5 t45 45t33.5 56t9.5 64.5q0 93 -62.5 140t-154.5 47q-108 0 -166.5 -62t-58.5 -159h-191zM332 126q0 65 43 106.5t108 41.5q68 0 111.5 -41.5t43.5 -106.5q0 -63 -43.5 -103.5t-111.5 -40.5q-65 0 -108 40.5t-43 103.5z" />
<glyph unicode="@" horiz-adv-x="1735" d="M119 488v56q0 231 100 407.5t274.5 270.5t395.5 94h8q138 0 257.5 -36.5t205.5 -100.5t147.5 -150t91.5 -185.5t30 -205.5v-50q0 -204 -97 -329.5t-251 -125.5q-99 0 -161 40.5t-74 100.5h-10q-15 -57 -76.5 -99t-145.5 -42q-125 0 -195.5 89t-70.5 239v100 q0 146 72.5 234.5t200.5 88.5q81 0 133 -40t68 -92h8v117h155v-491q0 -54 32.5 -83.5t84.5 -29.5q76 0 128 85t52 249v33q0 110 -39.5 208.5t-112.5 174t-185 119.5t-248 44h-8q-132 0 -246 -45t-196.5 -126.5t-129.5 -202.5t-47 -266v-44q0 -155 49 -276t133.5 -196 t193.5 -113.5t235 -38.5h9q205 0 314 48v-140q-97 -45 -318 -45h-8q-160 0 -296.5 48.5t-240.5 141t-163 238t-59 327.5zM710 484q0 -106 42 -156.5t115 -50.5q72 0 114 47.5t42 150.5v81q0 93 -44.5 142.5t-113.5 49.5t-112 -51.5t-43 -152.5v-60z" />
<glyph unicode="A" horiz-adv-x="1272" d="M49 0l476 1365h223l475 -1365h-220l-128 381h-490l-128 -381h-208zM435 551h392l-192 581h-8z" />
<glyph unicode="B" horiz-adv-x="1287" d="M184 0v1365h531q175 0 281 -89.5t106 -246.5q0 -121 -60.5 -196.5t-162.5 -103.5v-10q139 -16 219 -104.5t80 -230.5q0 -183 -131.5 -283.5t-345.5 -100.5h-517zM389 177h225q82 0 143 9.5t110 33t74.5 66.5t25.5 105q0 111 -73.5 169t-199.5 58h-305v-441zM389 787h199 q155 0 232 49.5t77 154.5q0 97 -61 147t-160 50h-287v-401z" />
<glyph unicode="C" horiz-adv-x="1312" d="M130 587v185q0 291 147 455.5t400 164.5q121 0 220.5 -39.5t162.5 -105.5t97 -149.5t34 -174.5v-15h-201q0 118 -84 205.5t-228 87.5q-156 0 -248.5 -111t-92.5 -320v-182q0 -211 92 -317t253 -106q146 0 227 78.5t81 194.5h201v-15q0 -66 -19.5 -130t-62 -122 t-102 -102.5t-145.5 -70.5t-187 -26q-255 0 -400 160t-145 455z" />
<glyph unicode="D" horiz-adv-x="1356" d="M184 0v1365h458q161 0 279 -49.5t188 -142t103 -213.5t33 -276q0 -122 -19.5 -223t-64.5 -187.5t-114 -146.5t-171.5 -93.5t-233.5 -33.5h-458zM390 188h233q209 0 309.5 120t100.5 373q0 497 -410 497h-233v-990z" />
<glyph unicode="E" horiz-adv-x="1161" d="M184 0v1365h839v-188h-634v-393h598v-180h-598v-416h634v-188h-839z" />
<glyph unicode="F" horiz-adv-x="1096" d="M184 0v1365h828v-189h-622v-423h569v-186h-569v-567h-206z" />
<glyph unicode="G" horiz-adv-x="1337" d="M130 596v181q0 286 151 450.5t408 164.5q119 0 216 -37.5t159.5 -101t98 -144t40.5 -170.5h-202q-17 127 -104.5 194.5t-211.5 67.5q-155 0 -252 -106.5t-97 -319.5v-178q0 -202 88 -317.5t259 -115.5q143 0 234 77t91 196v109h-329v177h528v-277q0 -62 -16 -124.5 t-55.5 -126.5t-97.5 -113t-150 -79.5t-205 -30.5q-182 0 -308 79.5t-185.5 217.5t-59.5 327z" />
<glyph unicode="H" horiz-adv-x="1431" d="M184 0v1365h206v-568h650v568h206v-1365h-206v607h-650v-607h-206z" />
<glyph unicode="I" horiz-adv-x="575" d="M184 0v1365h206v-1365h-206z" />
<glyph unicode="J" horiz-adv-x="1051" d="M51 351h200q3 -83 60 -131.5t139 -48.5q101 0 158.5 57t57.5 175v962h206v-950q0 -218 -113.5 -330.5t-307.5 -112.5q-183 0 -291.5 107t-108.5 272z" />
<glyph unicode="K" horiz-adv-x="1262" d="M184 0v1365h206v-636h9l569 636h235l-501 -584l526 -781h-255l-424 631l-159 -171v-460h-206z" />
<glyph unicode="L" horiz-adv-x="1052" d="M184 0v1365h206v-1172h613v-193h-819z" />
<glyph unicode="M" horiz-adv-x="1653" d="M188 0v1365h205l430 -977h8l429 977h205v-1365h-187v956h-11l-362 -814h-157l-364 814h-10v-956h-186z" />
<glyph unicode="N" horiz-adv-x="1421" d="M184 0v1365h187l656 -988h10v988h200v-1365h-187l-657 991h-9v-991h-200z" />
<glyph unicode="O" horiz-adv-x="1377" d="M130 583v188q0 289 151 455t409 166t408 -166t150 -455v-188q0 -287 -151.5 -449t-410.5 -162q-258 0 -407 161.5t-149 449.5zM338 582q0 -206 96.5 -312.5t253.5 -106.5q158 0 255 106.5t97 312.5v190q0 207 -97.5 318.5t-254.5 111.5q-156 0 -253 -111.5t-97 -318.5 v-190z" />
<glyph unicode="P" horiz-adv-x="1218" d="M184 0v1365h513q201 0 322.5 -123t121.5 -317q0 -195 -121.5 -316t-323.5 -121h-306v-488h-206zM390 669h192q87 0 147.5 11.5t107.5 39.5t70 79t23 126q0 122 -68 189t-190 67h-282v-512z" />
<glyph unicode="Q" horiz-adv-x="1380" d="M131 589v186q0 287 151 452t407 165t408 -165t152 -452v-186q0 -312 -179 -477l183 -257h-219l-118 159q-107 -42 -227 -42q-256 0 -407 165t-151 452zM334 588q0 -210 97.5 -321t254.5 -113q68 0 124 22l-145 200h214l73 -92q93 112 93 304v187q0 207 -99 317.5 t-257 110.5t-256.5 -110.5t-98.5 -317.5v-187z" />
<glyph unicode="R" horiz-adv-x="1282" d="M184 0v1365h511q113 0 201 -33t141.5 -91.5t81 -133t27.5 -161.5q0 -80 -22.5 -147.5t-61 -113t-80 -75t-88.5 -46.5l277 -564h-233l-248 526h-301v-526h-205zM389 703h271q133 0 203.5 60.5t70.5 174.5q0 119 -72 182t-195 63h-278v-480z" />
<glyph unicode="S" horiz-adv-x="1225" d="M87 378h203q10 -95 93 -158t226 -63q136 0 215 57.5t79 156.5q0 77 -53 123.5t-166 74.5l-231 56q-68 17 -124 45t-103.5 71t-74 107t-26.5 144q0 95 39.5 172.5t107 127t154.5 76.5t184 27q129 0 236.5 -45t176.5 -136.5t71 -215.5h-200q-9 93 -82.5 153.5t-204.5 60.5 q-123 0 -198.5 -54t-75.5 -149q0 -139 190 -184l229 -56q171 -41 264.5 -128.5t93.5 -249.5q0 -131 -68 -227t-184 -144t-267 -48q-90 0 -166 17t-129.5 47.5t-94 69.5t-64.5 85.5t-36.5 92.5t-13.5 94z" />
<glyph unicode="T" horiz-adv-x="1107" d="M45 1175v190h1017v-190h-406v-1175h-206v1175h-405z" />
<glyph unicode="U" horiz-adv-x="1394" d="M168 477v888h206v-877q0 -150 87.5 -236.5t235.5 -86.5t235.5 86.5t87.5 236.5v877h206v-891q0 -226 -145.5 -364t-383.5 -138t-383.5 139t-145.5 366z" />
<glyph unicode="V" horiz-adv-x="1268" d="M41 1365h236l355 -1115h11l352 1115h232l-480 -1365h-227z" />
<glyph unicode="W" horiz-adv-x="1751" d="M38 1365h232l237 -1045h10l260 1045h198l258 -1045h11l237 1045h232l-371 -1365h-188l-274 1018h-10l-275 -1018h-187z" />
<glyph unicode="X" horiz-adv-x="1197" d="M30 0l438 688l-433 677h246l324 -516h10l321 516h235l-447 -687l439 -678h-243l-325 512h-10l-326 -512h-229z" />
<glyph unicode="Y" horiz-adv-x="1162" d="M22 1365h232l322 -592h10l325 592h229l-457 -808v-557h-205v554z" />
<glyph unicode="Z" horiz-adv-x="1209" d="M110 0v150l707 1014v13h-684v188h937v-148l-703 -1016v-13h721v-188h-978z" />
<glyph unicode="[" horiz-adv-x="708" d="M147 -228v1593h463v-161h-270v-1271h283v-161h-476z" />
<glyph unicode="\" horiz-adv-x="743" d="M38 1437h179l490 -1736h-180z" />
<glyph unicode="]" horiz-adv-x="708" d="M86 -67h283v1271h-271v161h463v-1593h-475v161z" />
<glyph unicode="^" horiz-adv-x="848" d="M71 795l261 570h186l259 -570h-173l-177 396h-6l-179 -396h-171z" />
<glyph unicode="_" horiz-adv-x="899" d="M-1 -103h901v-168h-901v168z" />
<glyph unicode="`" horiz-adv-x="1000" d="M244 1580h192l238 -354h-151z" />
<glyph unicode="a" horiz-adv-x="1125" d="M114 307q0 143 97 227.5t275 84.5h271v100q0 90 -55 134t-154 44q-169 0 -201 -118h-193q11 135 114 214t286 79q87 0 157.5 -19t127.5 -59.5t88.5 -111t31.5 -166.5v-716h-193v137h-9q-41 -68 -115 -111t-183 -43q-154 0 -249.5 88.5t-95.5 235.5zM318 318 q0 -80 58.5 -123.5t142.5 -43.5q101 0 169.5 59t68.5 146v116h-246q-97 0 -145 -42t-48 -112z" />
<glyph unicode="b" horiz-adv-x="1219" d="M174 0v1437h202v-548h10q23 76 103.5 129t205.5 53q184 0 292.5 -121.5t108.5 -338.5v-165q0 -217 -110 -339t-296 -122q-120 0 -199.5 49t-110.5 125h-10v-159h-196zM376 442q0 -122 73.5 -200t191.5 -78q115 0 182.5 79t67.5 232v103q0 152 -67 233.5t-187 81.5 q-121 0 -191 -79.5t-70 -215.5v-156z" />
<glyph unicode="c" horiz-adv-x="1093" d="M122 453v155q0 212 120.5 339t327.5 127q190 0 299.5 -100.5t112.5 -241.5h-193q-4 28 -16.5 54t-36 52.5t-65.5 42.5t-97 16q-121 0 -186 -79t-65 -215v-150q0 -134 67 -210.5t184 -76.5q190 0 221 147h194q-5 -145 -114 -238t-306 -93q-206 0 -326.5 125.5 t-120.5 345.5z" />
<glyph unicode="d" horiz-adv-x="1221" d="M123 436v185q0 206 110 328.5t296 122.5q120 0 197.5 -49t106.5 -124h10v538h202v-1437h-195v168h-10q-22 -75 -105.5 -128.5t-209.5 -53.5q-183 0 -292.5 121t-109.5 329zM327 469q0 -146 68.5 -225.5t187.5 -79.5t189.5 78t70.5 213v163q0 122 -74 198t-191 76 t-184 -80t-67 -224v-119z" />
<glyph unicode="e" horiz-adv-x="1129" d="M122 456v145q0 219 124.5 346t320.5 127q197 0 321 -129t124 -344v-125h-690v-51q0 -118 68 -192.5t189 -74.5q87 0 146 34.5t72 85.5h202q-5 -38 -22.5 -77.5t-52 -79t-81.5 -70t-115 -50t-147 -19.5q-215 0 -337 126t-122 348zM322 619h491v15q0 121 -67 195t-178 74 t-178.5 -74t-67.5 -195v-15z" />
<glyph unicode="f" horiz-adv-x="812" d="M87 877v173h176v105q0 156 80 226.5t259 70.5q64 0 127 -7v-164q-37 5 -95 5q-92 0 -132 -32.5t-40 -115.5v-88h243v-173h-240v-877h-202v877h-176z" />
<glyph unicode="g" horiz-adv-x="1187" d="M111 473v143q0 210 115.5 332.5t295.5 122.5q112 0 194.5 -51.5t110.5 -123.5h9v160h195v-1036q0 -108 -35.5 -189t-100.5 -129.5t-149.5 -72t-188.5 -23.5q-200 0 -306 84t-117 213h202q12 -56 72.5 -91t156.5 -35q131 0 198 65.5t67 185.5v157h-11q-32 -72 -111 -119 t-185 -47q-180 0 -296 122t-116 332zM315 495q0 -137 74.5 -220.5t192.5 -83.5q115 0 181.5 80t66.5 197v143q0 118 -68.5 200t-181.5 82q-122 0 -193.5 -83.5t-71.5 -222.5v-92z" />
<glyph unicode="h" horiz-adv-x="1231" d="M176 0v1437h201v-570h11q9 32 30 64t57.5 65.5t98 54.5t137.5 21q159 0 256 -92t97 -267v-713h-202v651q0 118 -60 178.5t-163 60.5q-124 0 -193 -83.5t-69 -217.5v-589h-201z" />
<glyph unicode="i" horiz-adv-x="594" d="M159 1375q0 59 38.5 96.5t98.5 37.5q62 0 101 -37.5t39 -96.5q0 -58 -39 -95.5t-101 -37.5q-59 0 -98 37.5t-39 95.5zM196 0v1056h202v-1056h-202z" />
<glyph unicode="j" horiz-adv-x="594" d="M-11 -199q27 -5 64 -5q77 0 110 43.5t33 139.5v1077h202v-1079q0 -178 -80 -262.5t-226 -84.5q-58 0 -103 8v163zM159 1375q0 59 38.5 96.5t98.5 37.5q62 0 101 -37.5t39 -96.5q0 -58 -39 -95.5t-101 -37.5q-59 0 -98 37.5t-39 95.5z" />
<glyph unicode="k" horiz-adv-x="1094" d="M175 0v1437h202v-841h8l406 460h232l-405 -457l432 -599h-239l-344 470l-90 -91v-379h-202z" />
<glyph unicode="l" horiz-adv-x="560" d="M179 0v1437h202v-1437h-202z" />
<glyph unicode="m" horiz-adv-x="1803" d="M172 0v1056h200v-171h10q10 33 28.5 62t50.5 59t85.5 48t121.5 18q115 0 190.5 -54.5t101.5 -143.5h9q34 85 115 141.5t206 56.5q162 0 253.5 -87.5t91.5 -244.5v-740h-202v679q0 101 -54.5 157t-154.5 56q-95 0 -158 -64.5t-63 -168.5v-659h-198v673q0 102 -57.5 160.5 t-155.5 58.5q-96 0 -157 -63t-61 -168v-661h-202z" />
<glyph unicode="n" horiz-adv-x="1224" d="M172 0v1056h200v-189h10q12 36 31.5 67.5t55 65t95 53t136.5 19.5q165 0 261 -91t96 -266v-715h-203v653q0 118 -57 177.5t-160 59.5q-127 0 -195 -83t-68 -218v-589h-202z" />
<glyph unicode="o" horiz-adv-x="1169" d="M122 460v139q0 214 129.5 344.5t333.5 130.5q205 0 333.5 -128t128.5 -347v-139q0 -224 -128 -351t-334 -127q-209 0 -336 126t-127 352zM324 469q0 -139 68.5 -224.5t192.5 -85.5q123 0 190.5 85.5t67.5 224.5v119q0 137 -69 224t-189 87t-190.5 -87t-70.5 -224v-119z " />
<glyph unicode="p" horiz-adv-x="1217" d="M173 -360v1417h196v-168h10q30 79 111 130.5t203 51.5q183 0 291.5 -122t108.5 -338v-165q0 -217 -110 -339t-296 -122q-120 0 -194.5 48.5t-107.5 125.5h-10v-519h-202zM375 438q0 -122 72.5 -198t189.5 -76q115 0 183.5 79t68.5 233v103q0 153 -67.5 233.5t-188.5 80.5 t-189.5 -77.5t-68.5 -214.5v-163z" />
<glyph unicode="q" horiz-adv-x="1216" d="M123 443v170q0 210 108.5 334t292.5 124q118 0 199 -50t114 -131h10v166h196v-1417h-202v522h-10q-31 -77 -111 -126.5t-199 -49.5q-184 0 -291 123t-107 335zM327 469q0 -146 67.5 -226t187.5 -80t189.5 78t69.5 213v163q0 122 -73 198t-189 76q-119 0 -185.5 -81.5 t-66.5 -222.5v-118z" />
<glyph unicode="r" horiz-adv-x="814" d="M187 0v1056h202v-164h10q11 30 30.5 58.5t52 57.5t84.5 46.5t116 17.5q30 0 70 -6v-192q-25 7 -90 7q-131 0 -200.5 -69t-69.5 -180v-632h-205z" />
<glyph unicode="s" horiz-adv-x="1051" d="M105 283h197q21 -141 217 -141q112 0 167 42t55 109q0 38 -18 64.5t-55 42.5t-76 26t-97 21l-18 3q-66 13 -112 26t-95 36.5t-78 53.5t-48 76.5t-19 107.5q0 83 32.5 146.5t89.5 101.5t127.5 57t151.5 19q173 0 278.5 -82t105.5 -220h-184q-6 58 -59 101t-147 43 q-90 0 -145.5 -39.5t-55.5 -107.5q0 -39 18.5 -66t61 -43.5t70.5 -23.5t87 -17q19 -3 28 -5q81 -14 139 -33t110 -52t78.5 -86t26.5 -125q0 -158 -116 -247t-313 -89q-184 0 -294 80.5t-110 220.5z" />
<glyph unicode="t" horiz-adv-x="786" d="M74 877v173h163v264h199v-264h237v-173h-237v-564q0 -86 35.5 -117t129.5 -31q51 0 85 4v-167q-40 -10 -135 -10t-156.5 17t-97 56.5t-49 94t-13.5 137.5v580h-161z" />
<glyph unicode="u" horiz-adv-x="1219" d="M165 331v725h202v-670q0 -118 60.5 -169t159.5 -51q109 0 183 68t74 168v654h202v-1056h-200v176h-10q-27 -76 -106.5 -134.5t-205.5 -58.5q-167 0 -263 85t-96 263z" />
<glyph unicode="v" horiz-adv-x="1056" d="M49 1056h222l246 -844h9l267 844h214l-378 -1056h-215z" />
<glyph unicode="w" horiz-adv-x="1546" d="M55 1056h220l178 -808h8l222 808h190l227 -808h9l181 808h202l-279 -1056h-203l-229 783h-6l-223 -783h-205z" />
<glyph unicode="x" horiz-adv-x="1087" d="M70 1056h239l230 -375h9l237 375h227l-354 -519l355 -537h-234l-237 376h-7l-237 -376h-222l345 523z" />
<glyph unicode="y" horiz-adv-x="1105" d="M58 1056h223l265 -857h9l266 857h214q-364 -1038 -366 -1044l-27 -73q-21 -58 -41 -100.5t-51.5 -86.5t-69.5 -71t-93.5 -44.5t-124.5 -17.5q-66 0 -120 10v165q25 -6 81 -6q91 0 136 38.5t66 117.5l14 47z" />
<glyph unicode="z" horiz-adv-x="1030" d="M119 0v133l544 734v11h-544v178h792v-141l-538 -725v-11h545v-179h-799z" />
<glyph unicode="{" horiz-adv-x="777" d="M103 478v212q97 0 131.5 45.5t34.5 153.5v215q0 181 94 259.5t282 78.5h69v-164h-41q-120 0 -167.5 -47t-47.5 -157v-257q0 -105 -44.5 -158.5t-133.5 -62.5v-24q178 -17 178 -229v-288q0 -111 47.5 -158t167.5 -47h41v-163h-69q-187 0 -281.5 81.5t-94.5 264.5v245 q0 108 -34.5 154t-131.5 46z" />
<glyph unicode="|" horiz-adv-x="730" d="M277 -304v1741h175v-1741h-175z" />
<glyph unicode="}" horiz-adv-x="777" d="M63 -150h41q119 0 167.5 47.5t48.5 157.5v288q0 212 177 229v24q-177 18 -177 221v257q0 110 -48.5 157t-167.5 47h-41v164h69q188 0 282 -78.5t94 -259.5v-215q0 -108 34.5 -153.5t131.5 -45.5v-212q-97 0 -131.5 -46t-34.5 -154v-245q0 -183 -94.5 -264.5t-281.5 -81.5 h-69v163z" />
<glyph unicode="~" d="M96 525q0 73 16 134.5t50 111.5t92 78t136 28q114 0 230 -107q31 -31 50 -48t48 -32t55 -15q120 0 131 165h166q0 -73 -16.5 -135.5t-50.5 -112.5t-92 -78.5t-135 -28.5q-62 0 -116 27.5t-114 82.5q-68 63 -96 78q-31 17 -58 17q-65 0 -95.5 -46.5t-33.5 -118.5h-167z " />
<glyph unicode="&#xa1;" horiz-adv-x="583" d="M138 962q0 63 43.5 103.5t111.5 40.5q65 0 107.5 -41t42.5 -103q0 -65 -42.5 -106.5t-107.5 -41.5q-68 0 -111.5 41.5t-43.5 106.5zM175 -277l25 888h177l24 -888h-226z" />
<glyph unicode="&#xa2;" d="M138 600v164q0 193 102 314t269 140v237h158v-238q153 -17 243.5 -113.5t94.5 -219.5h-192q-4 27 -17.5 54t-38 53.5t-68.5 43t-100 16.5q-123 0 -190.5 -79t-67.5 -211v-163q0 -131 69.5 -207.5t188.5 -76.5q106 0 161.5 42t69.5 108h191q-4 -126 -94.5 -217 t-249.5 -107v-226h-158v226q-168 18 -269.5 139.5t-101.5 320.5z" />
<glyph unicode="&#xa3;" d="M102 612v157h189v273q0 164 110 257t283 93q176 0 277.5 -90.5t106.5 -250.5h-190q-4 70 -56 116t-138 46q-98 0 -147.5 -54.5t-49.5 -139.5v-250h296v-157h-296v-194q-1 -91 -17 -147.5t-56 -79.5v-12h662v-179h-955v188q48 2 75.5 9.5t51.5 31.5t33.5 71.5t9.5 126.5 v185h-189z" />
<glyph unicode="&#xa4;" d="M91 267l173 172q-65 96 -65 214q0 114 61 209l-169 167l110 116l168 -166q96 66 214 66q116 0 211 -63l164 163l111 -116l-165 -164q64 -98 64 -212q0 -119 -69 -218l170 -168l-110 -115l-171 169q-94 -59 -205 -59q-115 0 -208 62l-174 -172zM345 653q0 -97 70 -165 t168 -68t168.5 68t70.5 165t-70.5 166t-168.5 69t-168 -69t-70 -166z" />
<glyph unicode="&#xa5;" d="M25 1365h232l323 -592h10l325 592h229l-397 -693h228v-144h-288v-136h288v-144h-288v-248h-205v248h-287v144h287v136h-287v144h227z" />
<glyph unicode="&#xa6;" horiz-adv-x="517" d="M171 -304v682h175v-682h-175zM171 782v655h175v-655h-175z" />
<glyph unicode="&#xa7;" horiz-adv-x="984" d="M92 64h184q11 -69 65 -109t146 -40q106 0 157 44.5t51 112.5q0 31 -12.5 56t-32.5 41t-53 29.5t-63.5 22.5t-75.5 21l-24 6q-74 19 -127 40.5t-101 56t-72.5 86.5t-24.5 120q0 161 168 247v7q-162 92 -162 257q0 105 54.5 182t139.5 113t189 36q168 0 271 -89t103 -228 h-178q-4 58 -57 105t-144 47q-84 0 -136 -43t-52 -113q0 -87 103 -132q40 -17 151 -45q59 -14 99.5 -26.5t89 -36.5t77.5 -54t49 -77t20 -107q0 -86 -44 -151.5t-108 -106.5v-8q67 -42 106 -96t39 -140q0 -155 -111.5 -249.5t-289.5 -94.5q-110 0 -198.5 37t-141.5 110 t-54 169zM295 578q0 -73 52.5 -110.5t155.5 -62.5q58 -14 90 -21q48 20 80 69.5t32 105.5q0 72 -53.5 112.5t-156.5 62.5q-24 4 -75 15q-46 -15 -85.5 -64t-39.5 -107z" />
<glyph unicode="&#xa8;" horiz-adv-x="1000" d="M189 1362q0 49 32.5 81t82.5 32t83 -32t33 -81q0 -48 -33 -80t-83 -32q-49 0 -82 32t-33 80zM565 1362q0 49 32.5 81t79.5 32q52 0 85.5 -32t33.5 -81q0 -48 -33.5 -80t-85.5 -32q-47 0 -79.5 32t-32.5 80z" />
<glyph unicode="&#xa9;" horiz-adv-x="1693" d="M132 644v103q0 142 54 268t148 218t229 145.5t289 53.5q155 0 290 -54t228.5 -146.5t147.5 -218.5t54 -266v-103q0 -151 -53 -282t-146.5 -224.5t-228.5 -147.5t-292 -54q-209 0 -374 92t-255.5 253.5t-90.5 362.5zM258 641q0 -167 73.5 -299t209 -207t311.5 -75 q132 0 243.5 43.5t189 120.5t121 184.5t43.5 232.5v106q0 154 -74.5 281.5t-212 203t-310.5 75.5t-309.5 -75t-210.5 -202.5t-74 -282.5v-106zM527 632v99q0 157 90 244.5t241 87.5q137 0 219.5 -76.5t84.5 -179.5h-139q-7 48 -45.5 86.5t-118.5 38.5q-191 0 -191 -207v-94 q0 -98 50.5 -147.5t140.5 -49.5q147 0 169 107h138q-3 -101 -83 -172.5t-225 -71.5q-152 0 -241.5 87.5t-89.5 247.5z" />
<glyph unicode="&#xaa;" horiz-adv-x="694" d="M91 948q0 82 55 128t161 46h147v51q0 84 -106 84q-89 0 -101 -58h-133q6 77 64.5 124t173.5 47q110 0 176 -47.5t66 -151.5v-392h-134v74h-6q-48 -83 -164 -83q-90 0 -144.5 47.5t-54.5 130.5zM229 958q0 -39 30 -59.5t75 -20.5q50 0 85 27.5t35 69.5v56h-120 q-105 0 -105 -73z" />
<glyph unicode="&#xab;" horiz-adv-x="1327" d="M132 557v8l344 404h212l-339 -403v-6l339 -405h-221zM616 557v8l344 404h212l-339 -403v-6l339 -405h-221z" />
<glyph unicode="&#xac;" d="M96 456v175h974v-538h-176v363h-798z" />
<glyph unicode="&#xad;" horiz-adv-x="840" d="M105 464v192h630v-192h-630z" />
<glyph unicode="&#xae;" horiz-adv-x="1211" d="M117 888v69q0 192 140.5 325t349.5 133q208 0 349 -133.5t141 -324.5v-69q0 -205 -138.5 -339.5t-351.5 -134.5t-351.5 135t-138.5 339zM217 888q0 -161 110 -267.5t280 -106.5t280.5 106.5t110.5 267.5v68q0 151 -111.5 255.5t-279.5 104.5t-279 -104t-111 -256v-68z M429 686v479h225q68 0 111.5 -42t43.5 -106q0 -52 -26.5 -91.5t-67.5 -50.5l109 -189h-116l-95 177h-83v-177h-101zM530 941h77q99 0 99 73q0 34 -24 53t-63 19h-89v-145z" />
<glyph unicode="&#xaf;" horiz-adv-x="1000" d="M204 1259v126h581v-126h-581z" />
<glyph unicode="&#xb0;" horiz-adv-x="723" d="M75 1096q0 121 83.5 204.5t204.5 83.5q119 0 202.5 -83.5t83.5 -204.5t-83.5 -205.5t-202.5 -84.5q-121 0 -204.5 84t-83.5 206zM213 1096q0 -60 44.5 -104t105.5 -44q62 0 105.5 44t43.5 104q0 61 -43.5 104t-105.5 43q-61 0 -105.5 -43t-44.5 -104z" />
<glyph unicode="&#xb1;" d="M104 651v169h392v256h169v-256h395v-169h-395v-271h-169v271h-392zM107 97v172h956v-172h-956z" />
<glyph unicode="&#xb2;" horiz-adv-x="693" d="M101 1155v10q0 87 62 150.5t175 63.5q106 0 170.5 -55.5t64.5 -140.5q0 -34 -10.5 -65.5t-31 -60.5t-36.5 -46.5t-41 -42.5l-158 -146v-3h288v-126h-470v96l243 252q73 75 73 129q0 38 -27 61t-68 23q-44 0 -70 -25.5t-26 -62.5v-11h-138z" />
<glyph unicode="&#xb3;" horiz-adv-x="702" d="M94 883h134q3 -35 33 -58t78 -23q51 0 83 25t32 64q0 38 -30.5 63t-81.5 25h-79v118h76q44 0 70.5 23.5t26.5 59.5t-26.5 58t-68.5 22q-45 0 -72 -23.5t-29 -57.5h-133q3 88 65 144t171 56q103 0 166.5 -49t63.5 -129q0 -58 -34 -99t-89 -55v-3q64 -11 105 -51t41 -108 q0 -94 -72 -149t-181 -55q-114 0 -180 59.5t-69 142.5z" />
<glyph unicode="&#xb4;" horiz-adv-x="1000" d="M306 1226l239 354h192l-279 -354h-152z" />
<glyph unicode="&#xb6;" horiz-adv-x="1345" d="M124 927q0 71 16 132t42.5 105t63 79.5t77 57.5t85 37t85 21t79.5 6h215v-1575h-196v700h-20q-55 0 -113.5 14.5t-118.5 48.5t-107.5 83t-77.5 124.5t-30 166.5zM947 -210v1575h196v-1575h-196z" />
<glyph unicode="&#xb7;" horiz-adv-x="660" d="M177 755q0 69 43.5 112.5t107.5 43.5q66 0 110 -43.5t44 -112.5q0 -67 -44 -109.5t-110 -42.5q-63 0 -107 43t-44 109z" />
<glyph unicode="&#xb8;" horiz-adv-x="1000" d="M351 -356q47 -14 115 -14q48 0 81.5 16.5t33.5 54.5q0 22 -10.5 35.5t-33.5 19.5t-43.5 7.5t-55.5 1.5h-53v89l59 154h131l-52 -137q95 0 150.5 -42.5t55.5 -121.5q0 -93 -63 -140.5t-166 -51.5q-86 -3 -149 16v113z" />
<glyph unicode="&#xb9;" horiz-adv-x="639" d="M144 1106v141l160 118h144v-672h-144v525h-7z" />
<glyph unicode="&#xba;" horiz-adv-x="692" d="M75 1037v65q0 121 75 194.5t197 73.5t196.5 -72.5t74.5 -195.5v-65q0 -128 -74 -199t-197 -71q-124 0 -198 71t-74 199zM215 1038q0 -69 33.5 -112t98.5 -43q64 0 97 43t33 112v62q0 68 -34 111.5t-96 43.5q-63 0 -97.5 -43.5t-34.5 -111.5v-62z" />
<glyph unicode="&#xbb;" horiz-adv-x="1327" d="M132 155l339 405v6l-339 403h212l344 -404v-8l-335 -402h-221zM616 155l339 405v6l-339 403h212l344 -404v-8l-335 -402h-221z" />
<glyph unicode="&#xbc;" horiz-adv-x="1416" d="M62 1106v141l160 118h144v-672h-144v525h-7zM89 0l533 698l511 667h166l-530 -693l-513 -672h-167zM806 116v114q73 133 268 442h194v-440h81v-116h-81v-116h-129v116h-333zM941 232h198v322h-6q-76 -114 -192 -319v-3z" />
<glyph unicode="&#xbd;" horiz-adv-x="1431" d="M61 1106v141l160 118h144v-672h-144v525h-7zM87 0l533 698l511 667h166l-530 -693l-513 -672h-167zM901 452v10q0 88 63 152.5t178 64.5q107 0 172.5 -56t65.5 -143q0 -34 -10.5 -66t-31.5 -61.5t-36.5 -47t-41.5 -43.5l-161 -148v-3h293v-128h-478v97l247 256 q74 76 74 131q0 38 -27.5 61.5t-68.5 23.5q-44 0 -71 -26t-27 -63v-11h-140z" />
<glyph unicode="&#xbe;" horiz-adv-x="1455" d="M48 864h136q3 -36 33 -59t79 -23q52 0 84.5 25.5t32.5 64.5q0 38 -31 63.5t-83 25.5h-80v119h77q44 0 71 23.5t27 60.5t-26.5 59t-69.5 22q-46 0 -73 -24t-29 -58h-135q3 89 65.5 145.5t173.5 56.5q104 0 168.5 -50t64.5 -130q0 -58 -34.5 -99.5t-89.5 -55.5v-3 q65 -11 106 -51.5t41 -109.5q0 -95 -72.5 -150.5t-183.5 -55.5q-116 0 -182.5 60t-69.5 144zM132 0l533 698l511 667h166l-530 -693l-513 -672h-167zM849 116v114q64 114 268 442h196v-438h80v-118h-80v-116h-130v116h-334zM985 234h198v320h-6q-86 -127 -192 -318v-2z" />
<glyph unicode="&#xbf;" horiz-adv-x="1009" d="M85 31q0 60 15.5 110t48 90t59.5 64.5t72 58.5q53 41 75.5 60t45.5 47.5t30 57t7 70.5v57h191l1 -74q2 -69 -25.5 -129.5t-65 -99.5t-96.5 -84q-43 -33 -64 -50.5t-45 -45t-33.5 -56t-9.5 -64.5q0 -93 62.5 -140t154.5 -47q108 0 166.5 62t58.5 159h190q1 -86 -23.5 -155 t-66 -113.5t-98 -74.5t-115.5 -42.5t-122 -12.5q-82 0 -155 22t-131.5 64t-92.5 111t-34 155zM371 948q0 63 43.5 103.5t111.5 40.5q65 0 108 -41t43 -103q0 -65 -43 -106.5t-108 -41.5q-68 0 -111.5 41.5t-43.5 106.5z" />
<glyph unicode="&#xc0;" horiz-adv-x="1272" d="M49 0l476 1365h223l475 -1365h-220l-128 381h-490l-128 -381h-208zM289 1718h224l257 -209h-201zM435 551h392l-192 581h-8z" />
<glyph unicode="&#xc1;" horiz-adv-x="1272" d="M49 0l476 1365h223l475 -1365h-220l-128 381h-490l-128 -381h-208zM435 551h392l-192 581h-8zM492 1509l260 212h228l-279 -212h-209z" />
<glyph unicode="&#xc2;" horiz-adv-x="1272" d="M49 0l476 1365h223l475 -1365h-220l-128 381h-490l-128 -381h-208zM302 1497l278 246h135l266 -246h-185l-148 135h-8l-156 -135h-182zM435 551h392l-192 581h-8z" />
<glyph unicode="&#xc3;" horiz-adv-x="1272" d="M49 0l476 1365h223l475 -1365h-220l-128 381h-490l-128 -381h-208zM328 1477q0 89 47 153.5t138 64.5q46 0 81.5 -17.5t74.5 -52.5q4 -4 15.5 -16t16.5 -16t14.5 -11t18.5 -9.5t20 -2.5q33 0 50.5 33.5t21.5 75.5h125q0 -87 -52 -154.5t-134 -67.5q-55 0 -89 16t-67 48 l-10.5 10.5l-11 11t-10.5 9.5t-12.5 9.5t-12 6.5t-14.5 5.5t-15 1.5q-38 0 -52 -27t-17 -71h-126zM435 551h392l-192 581h-8z" />
<glyph unicode="&#xc4;" horiz-adv-x="1272" d="M49 0l476 1365h223l475 -1365h-220l-128 381h-490l-128 -381h-208zM343 1580q0 48 31 78t79 30q50 0 81 -30t31 -78q0 -47 -31.5 -77t-80.5 -30q-47 0 -78.5 30.5t-31.5 76.5zM435 551h392l-192 581h-8zM706 1580q0 48 31 78t79 30q50 0 81.5 -30t31.5 -78 q0 -47 -31.5 -77t-81.5 -30q-47 0 -78.5 30.5t-31.5 76.5z" />
<glyph unicode="&#xc5;" horiz-adv-x="1272" d="M49 0l464 1322q-44 28 -70.5 74t-26.5 101q0 94 63 158.5t154 64.5q90 0 153 -64.5t63 -158.5q0 -52 -24.5 -96.5t-66.5 -72.5l465 -1328h-220l-128 381h-490l-128 -381h-208zM435 551h392l-192 581h-8zM525 1496q0 -45 32 -76.5t76 -31.5q45 0 76.5 31.5t31.5 76.5 t-31.5 76t-76.5 31q-44 0 -76 -31t-32 -76z" />
<glyph unicode="&#xc6;" horiz-adv-x="1917" d="M39 0l719 1365h1021v-187h-626v-394h590v-180h-590v-416h626v-188h-831v392h-468l-211 -392h-230zM561 568l387 1v609h-71z" />
<glyph unicode="&#xc7;" horiz-adv-x="1312" d="M130 587v185q0 291 147 455.5t400 164.5q121 0 220.5 -39.5t162.5 -105.5t97 -149.5t34 -174.5v-15h-201q0 118 -84 205.5t-228 87.5q-156 0 -248.5 -111t-92.5 -320v-182q0 -211 92 -317t253 -106q146 0 227 78.5t81 194.5h201v-15q0 -78 -29 -152.5t-84 -138.5 t-145.5 -106.5t-204.5 -50.5l-40 -104q95 0 151 -42.5t56 -121.5q0 -93 -63 -140.5t-166 -51.5q-85 -3 -150 16v113q47 -14 115 -14q48 0 82 16.5t34 54.5q0 22 -10.5 35.5t-33.5 19.5t-43.5 7.5t-55.5 1.5h-53v89l47 123q-220 24 -344 181.5t-124 428.5z" />
<glyph unicode="&#xc8;" horiz-adv-x="1161" d="M184 0v1365h839v-188h-634v-393h598v-180h-598v-416h634v-188h-839zM252 1718h224l257 -209h-201z" />
<glyph unicode="&#xc9;" horiz-adv-x="1161" d="M184 0v1365h839v-188h-634v-393h598v-180h-598v-416h634v-188h-839zM455 1509l260 212h228l-279 -212h-209z" />
<glyph unicode="&#xca;" horiz-adv-x="1161" d="M184 0v1365h839v-188h-634v-393h598v-180h-598v-416h634v-188h-839zM265 1497l278 246h135l266 -246h-185l-148 135h-8l-156 -135h-182z" />
<glyph unicode="&#xcb;" horiz-adv-x="1161" d="M184 0v1365h839v-188h-634v-393h598v-180h-598v-416h634v-188h-839zM305 1580q0 48 31 78t79 30q50 0 81 -30t31 -78q0 -47 -31.5 -77t-80.5 -30q-47 0 -78.5 30.5t-31.5 76.5zM668 1580q0 48 31 78t79 30q50 0 81.5 -30t31.5 -78q0 -47 -31.5 -77t-81.5 -30 q-47 0 -78.5 30.5t-31.5 76.5z" />
<glyph unicode="&#xcc;" horiz-adv-x="575" d="M-59 1718h224l257 -209h-201zM184 0v1365h206v-1365h-206z" />
<glyph unicode="&#xcd;" horiz-adv-x="575" d="M144 1509l260 212h228l-279 -212h-209zM184 0v1365h206v-1365h-206z" />
<glyph unicode="&#xce;" horiz-adv-x="575" d="M-46 1497l278 246h135l266 -246h-185l-148 135h-8l-156 -135h-182zM184 0v1365h206v-1365h-206z" />
<glyph unicode="&#xcf;" horiz-adv-x="575" d="M-6 1580q0 48 31 78t79 30q50 0 81 -30t31 -78q0 -47 -31.5 -77t-80.5 -30q-47 0 -78.5 30.5t-31.5 76.5zM184 0v1365h206v-1365h-206zM357 1580q0 48 31 78t79 30q50 0 81.5 -30t31.5 -78q0 -47 -31.5 -77t-81.5 -30q-47 0 -78.5 30.5t-31.5 76.5z" />
<glyph unicode="&#xd0;" horiz-adv-x="1438" d="M103 599v193h162v573h458q161 0 279 -49.5t188 -142t103 -213.5t33 -276q0 -122 -19.5 -223t-64.5 -187.5t-114 -146.5t-171.5 -93.5t-233.5 -33.5h-458v599h-162zM471 190h233q208 0 308.5 120.5t100.5 373.5q0 497 -409 497h-233v-389h287v-193h-287v-409z" />
<glyph unicode="&#xd1;" horiz-adv-x="1421" d="M184 0v1365h187l656 -988h10v988h200v-1365h-187l-657 991h-9v-991h-200zM402 1477q0 89 47 153.5t138 64.5q46 0 81.5 -17.5t74.5 -52.5q4 -4 15.5 -16t16.5 -16t14.5 -11t18.5 -9.5t20 -2.5q33 0 50.5 33.5t21.5 75.5h125q0 -87 -52 -154.5t-134 -67.5q-55 0 -89 16 t-67 48l-10.5 10.5l-11 11t-10.5 9.5t-12.5 9.5t-12 6.5t-14.5 5.5t-15 1.5q-38 0 -52 -27t-17 -71h-126z" />
<glyph unicode="&#xd2;" horiz-adv-x="1377" d="M130 583v188q0 289 151 455t409 166t408 -166t150 -455v-188q0 -287 -151.5 -449t-410.5 -162q-258 0 -407 161.5t-149 449.5zM338 582q0 -206 96.5 -312.5t253.5 -106.5q158 0 255 106.5t97 312.5v190q0 207 -97.5 318.5t-254.5 111.5q-156 0 -253 -111.5t-97 -318.5 v-190zM342 1718h224l257 -209h-201z" />
<glyph unicode="&#xd3;" horiz-adv-x="1377" d="M130 583v188q0 289 151 455t409 166t408 -166t150 -455v-188q0 -287 -151.5 -449t-410.5 -162q-258 0 -407 161.5t-149 449.5zM338 582q0 -206 96.5 -312.5t253.5 -106.5q158 0 255 106.5t97 312.5v190q0 207 -97.5 318.5t-254.5 111.5q-156 0 -253 -111.5t-97 -318.5 v-190zM545 1509l260 212h228l-279 -212h-209z" />
<glyph unicode="&#xd4;" horiz-adv-x="1377" d="M130 583v188q0 289 151 455t409 166t408 -166t150 -455v-188q0 -287 -151.5 -449t-410.5 -162q-258 0 -407 161.5t-149 449.5zM338 582q0 -206 96.5 -312.5t253.5 -106.5q158 0 255 106.5t97 312.5v190q0 207 -97.5 318.5t-254.5 111.5q-156 0 -253 -111.5t-97 -318.5 v-190zM355 1497l278 246h135l266 -246h-185l-148 135h-8l-156 -135h-182z" />
<glyph unicode="&#xd5;" horiz-adv-x="1377" d="M130 583v188q0 289 151 455t409 166t408 -166t150 -455v-188q0 -287 -151.5 -449t-410.5 -162q-258 0 -407 161.5t-149 449.5zM338 582q0 -206 96.5 -312.5t253.5 -106.5q158 0 255 106.5t97 312.5v190q0 207 -97.5 318.5t-254.5 111.5q-156 0 -253 -111.5t-97 -318.5 v-190zM381 1477q0 89 47 153.5t138 64.5q46 0 81.5 -17.5t74.5 -52.5q4 -4 15.5 -16t16.5 -16t14.5 -11t18.5 -9.5t20 -2.5q33 0 50.5 33.5t21.5 75.5h125q0 -87 -52 -154.5t-134 -67.5q-55 0 -89 16t-67 48l-10.5 10.5l-11 11t-10.5 9.5t-12.5 9.5t-12 6.5t-14.5 5.5 t-15 1.5q-38 0 -52 -27t-17 -71h-126z" />
<glyph unicode="&#xd6;" horiz-adv-x="1377" d="M130 583v188q0 289 151 455t409 166t408 -166t150 -455v-188q0 -287 -151.5 -449t-410.5 -162q-258 0 -407 161.5t-149 449.5zM338 582q0 -206 96.5 -312.5t253.5 -106.5q158 0 255 106.5t97 312.5v190q0 207 -97.5 318.5t-254.5 111.5q-156 0 -253 -111.5t-97 -318.5 v-190zM395 1580q0 48 31 78t79 30q50 0 81 -30t31 -78q0 -47 -31.5 -77t-80.5 -30q-47 0 -78.5 30.5t-31.5 76.5zM758 1580q0 48 31 78t79 30q50 0 81.5 -30t31.5 -78q0 -47 -31.5 -77t-81.5 -30q-47 0 -78.5 30.5t-31.5 76.5z" />
<glyph unicode="&#xd7;" d="M153 200l309 309l-309 309l120 130l311 -309l309 309l121 -130l-310 -309l310 -309l-121 -131l-309 310l-311 -310z" />
<glyph unicode="&#xd8;" horiz-adv-x="1377" d="M101 71l117 143q-88 150 -88 369v188q0 289 151 455t409 166q228 0 372 -129l95 116l110 -83l-116 -140q97 -156 97 -385v-188q0 -287 -151.5 -449t-410.5 -162q-235 0 -379 133l-100 -124zM334 581q0 -100 28 -176l577 696q-96 104 -251 104q-158 0 -256 -112.5 t-98 -320.5v-191zM430 266q94 -107 258 -107q159 0 256.5 107.5t97.5 314.5v191q0 111 -34 193z" />
<glyph unicode="&#xd9;" horiz-adv-x="1394" d="M168 477v888h206v-877q0 -150 87.5 -236.5t235.5 -86.5t235.5 86.5t87.5 236.5v877h206v-891q0 -226 -145.5 -364t-383.5 -138t-383.5 139t-145.5 366zM350 1718h224l257 -209h-201z" />
<glyph unicode="&#xda;" horiz-adv-x="1394" d="M168 477v888h206v-877q0 -150 87.5 -236.5t235.5 -86.5t235.5 86.5t87.5 236.5v877h206v-891q0 -226 -145.5 -364t-383.5 -138t-383.5 139t-145.5 366zM553 1509l260 212h228l-279 -212h-209z" />
<glyph unicode="&#xdb;" horiz-adv-x="1394" d="M168 477v888h206v-877q0 -150 87.5 -236.5t235.5 -86.5t235.5 86.5t87.5 236.5v877h206v-891q0 -226 -145.5 -364t-383.5 -138t-383.5 139t-145.5 366zM363 1497l278 246h135l266 -246h-185l-148 135h-8l-156 -135h-182z" />
<glyph unicode="&#xdc;" horiz-adv-x="1394" d="M168 477v888h206v-877q0 -150 87.5 -236.5t235.5 -86.5t235.5 86.5t87.5 236.5v877h206v-891q0 -226 -145.5 -364t-383.5 -138t-383.5 139t-145.5 366zM403 1580q0 48 31 78t79 30q50 0 81 -30t31 -78q0 -47 -31.5 -77t-80.5 -30q-47 0 -78.5 30.5t-31.5 76.5zM766 1580 q0 48 31 78t79 30q50 0 81.5 -30t31.5 -78q0 -47 -31.5 -77t-81.5 -30q-47 0 -78.5 30.5t-31.5 76.5z" />
<glyph unicode="&#xdd;" horiz-adv-x="1162" d="M22 1365h232l322 -592h10l325 592h229l-457 -808v-557h-205v554zM437 1509l260 212h228l-279 -212h-209z" />
<glyph unicode="&#xde;" horiz-adv-x="1215" d="M184 0v1365h205v-247h292q204 0 323.5 -109.5t119.5 -299.5q0 -191 -119.5 -299t-324.5 -108h-290v-302h-206zM390 483h229q55 0 95 4.5t79.5 19t64.5 38.5t40 65.5t15 98.5q0 225 -257 225h-266v-451z" />
<glyph unicode="&#xdf;" horiz-adv-x="1305" d="M182 0v1046q0 187 121 291t321 105q198 0 319.5 -99t120.5 -257q0 -73 -26 -135t-65.5 -100t-82 -60.5t-80.5 -27.5v-14q70 0 137 -23.5t122.5 -67t89 -114t33.5 -157.5q0 -99 -40.5 -177.5t-108.5 -127t-153 -74t-180 -25.5q-93 0 -156 19v175q52 -20 141 -20 q55 0 105 13t92.5 39t68 73t25.5 109q0 113 -89 177.5t-239 64.5h-77v197h46q89 0 163 64t74 163q0 91 -63 148.5t-172 57.5q-243 0 -243 -254v-1009h-204z" />
<glyph unicode="&#xe0;" horiz-adv-x="1125" d="M114 307q0 143 97 227.5t275 84.5h271v100q0 90 -55 134t-154 44q-169 0 -201 -118h-193q11 135 114 214t286 79q87 0 157.5 -19t127.5 -59.5t88.5 -111t31.5 -166.5v-716h-193v137h-9q-41 -68 -115 -111t-183 -43q-154 0 -249.5 88.5t-95.5 235.5zM234 1582h192 l238 -354h-151zM318 318q0 -80 58.5 -123.5t142.5 -43.5q101 0 169.5 59t68.5 146v116h-246q-97 0 -145 -42t-48 -112z" />
<glyph unicode="&#xe1;" horiz-adv-x="1125" d="M114 307q0 143 97 227.5t275 84.5h271v100q0 90 -55 134t-154 44q-169 0 -201 -118h-193q11 135 114 214t286 79q87 0 157.5 -19t127.5 -59.5t88.5 -111t31.5 -166.5v-716h-193v137h-9q-41 -68 -115 -111t-183 -43q-154 0 -249.5 88.5t-95.5 235.5zM318 318 q0 -80 58.5 -123.5t142.5 -43.5q101 0 169.5 59t68.5 146v116h-246q-97 0 -145 -42t-48 -112zM511 1228l239 354h192l-279 -354h-152z" />
<glyph unicode="&#xe2;" horiz-adv-x="1125" d="M114 307q0 143 97 227.5t275 84.5h271v100q0 90 -55 134t-154 44q-169 0 -201 -118h-193q11 135 114 214t286 79q87 0 157.5 -19t127.5 -59.5t88.5 -111t31.5 -166.5v-716h-193v137h-9q-41 -68 -115 -111t-183 -43q-154 0 -249.5 88.5t-95.5 235.5zM242 1225l251 368h138 l240 -368h-167l-141 238h-5l-150 -238h-166zM318 318q0 -80 58.5 -123.5t142.5 -43.5q101 0 169.5 59t68.5 146v116h-246q-97 0 -145 -42t-48 -112z" />
<glyph unicode="&#xe3;" horiz-adv-x="1125" d="M114 307q0 143 97 227.5t275 84.5h271v100q0 90 -55 134t-154 44q-169 0 -201 -118h-193q11 135 114 214t286 79q87 0 157.5 -19t127.5 -59.5t88.5 -111t31.5 -166.5v-716h-193v137h-9q-41 -68 -115 -111t-183 -43q-154 0 -249.5 88.5t-95.5 235.5zM254 1180 q0 110 51 185.5t139 75.5q50 0 85.5 -18t67.5 -62q3 -4 13 -19t15 -20.5t14 -14t19.5 -12t23.5 -3.5q32 0 50 40.5t21 91.5h127q0 -104 -55 -183.5t-134 -79.5q-56 0 -91.5 19t-62.5 59q-13 19 -21.5 29t-26.5 20.5t-38 10.5q-64 0 -70 -119h-127zM318 318 q0 -80 58.5 -123.5t142.5 -43.5q101 0 169.5 59t68.5 146v116h-246q-97 0 -145 -42t-48 -112z" />
<glyph unicode="&#xe4;" horiz-adv-x="1125" d="M114 307q0 143 97 227.5t275 84.5h271v100q0 90 -55 134t-154 44q-169 0 -201 -118h-193q11 135 114 214t286 79q87 0 157.5 -19t127.5 -59.5t88.5 -111t31.5 -166.5v-716h-193v137h-9q-41 -68 -115 -111t-183 -43q-154 0 -249.5 88.5t-95.5 235.5zM263 1309 q0 49 32.5 81t82.5 32t83 -32t33 -81q0 -48 -33 -80t-83 -32q-49 0 -82 32t-33 80zM318 318q0 -80 58.5 -123.5t142.5 -43.5q101 0 169.5 59t68.5 146v116h-246q-97 0 -145 -42t-48 -112zM639 1309q0 49 32.5 81t79.5 32q52 0 85.5 -32t33.5 -81q0 -48 -33.5 -80t-85.5 -32 q-47 0 -79.5 32t-32.5 80z" />
<glyph unicode="&#xe5;" horiz-adv-x="1125" d="M114 307q0 143 97 227.5t275 84.5h271v100q0 90 -55 134t-154 44q-169 0 -201 -118h-193q11 135 114 214t286 79q87 0 157.5 -19t127.5 -59.5t88.5 -111t31.5 -166.5v-716h-193v137h-9q-41 -68 -115 -111t-183 -43q-154 0 -249.5 88.5t-95.5 235.5zM318 318 q0 -80 58.5 -123.5t142.5 -43.5q101 0 169.5 59t68.5 146v116h-246q-97 0 -145 -42t-48 -112zM365 1387q0 84 57.5 139.5t140.5 55.5q84 0 141 -55.5t57 -139.5t-57 -140.5t-141 -56.5q-83 0 -140.5 56.5t-57.5 140.5zM464 1386q0 -41 28.5 -70t70.5 -29t70.5 29t28.5 70 q0 42 -28.5 70.5t-70.5 28.5t-70.5 -28.5t-28.5 -70.5z" />
<glyph unicode="&#xe6;" horiz-adv-x="1767" d="M112 304q0 146 99 230.5t280 84.5h268v100q0 90 -55 134t-154 44q-174 0 -206 -118h-193q11 135 116.5 214.5t289.5 79.5q106 0 192.5 -34.5t129.5 -100.5h14q45 64 130.5 99.5t187.5 35.5q197 0 317 -128t120 -344v-125h-681v-74q0 -107 70 -175.5t186 -68.5 q86 0 141.5 34.5t68.5 85.5h202q-6 -49 -32.5 -98t-74 -95t-127 -74.5t-177.5 -28.5q-149 0 -247.5 56.5t-135.5 144.5h-14q-42 -85 -132.5 -143t-223.5 -58q-162 0 -260.5 86.5t-98.5 235.5zM313 318q0 -80 61 -123.5t146 -43.5q101 0 170 59t69 146v116h-243 q-99 0 -151 -42.5t-52 -111.5zM967 619h482v21q0 121 -63.5 192t-173.5 71q-106 0 -175.5 -71.5t-69.5 -182.5v-30z" />
<glyph unicode="&#xe7;" horiz-adv-x="1093" d="M122 453v155q0 212 120.5 339t327.5 127q190 0 299.5 -100.5t112.5 -241.5h-193q-4 28 -16.5 54t-36 52.5t-65.5 42.5t-97 16q-121 0 -186 -79t-65 -215v-150q0 -134 67 -210.5t184 -76.5q190 0 221 147h194q-5 -129 -93.5 -219t-251.5 -108l-44 -115q95 0 151 -42.5 t56 -121.5q0 -93 -63 -140.5t-167 -51.5q-84 -3 -149 16v113q47 -14 115 -14q48 0 81.5 16.5t33.5 54.5q0 22 -10.5 35.5t-33.5 19.5t-43.5 7.5t-54.5 1.5h-54v89l50 131q-182 18 -286 141.5t-104 326.5z" />
<glyph unicode="&#xe8;" horiz-adv-x="1129" d="M122 456v145q0 219 124.5 346t320.5 127q197 0 321 -129t124 -344v-125h-690v-51q0 -118 68 -192.5t189 -74.5q87 0 146 34.5t72 85.5h202q-5 -38 -22.5 -77.5t-52 -79t-81.5 -70t-115 -50t-147 -19.5q-215 0 -337 126t-122 348zM235 1582h192l238 -354h-151zM322 619 h491v15q0 121 -67 195t-178 74t-178.5 -74t-67.5 -195v-15z" />
<glyph unicode="&#xe9;" horiz-adv-x="1129" d="M122 456v145q0 219 124.5 346t320.5 127q197 0 321 -129t124 -344v-125h-690v-51q0 -118 68 -192.5t189 -74.5q87 0 146 34.5t72 85.5h202q-5 -38 -22.5 -77.5t-52 -79t-81.5 -70t-115 -50t-147 -19.5q-215 0 -337 126t-122 348zM322 619h491v15q0 121 -67 195t-178 74 t-178.5 -74t-67.5 -195v-15zM512 1228l239 354h192l-279 -354h-152z" />
<glyph unicode="&#xea;" horiz-adv-x="1129" d="M122 456v145q0 219 124.5 346t320.5 127q197 0 321 -129t124 -344v-125h-690v-51q0 -118 68 -192.5t189 -74.5q87 0 146 34.5t72 85.5h202q-5 -38 -22.5 -77.5t-52 -79t-81.5 -70t-115 -50t-147 -19.5q-215 0 -337 126t-122 348zM243 1225l251 368h138l240 -368h-167 l-141 238h-5l-150 -238h-166zM322 619h491v15q0 121 -67 195t-178 74t-178.5 -74t-67.5 -195v-15z" />
<glyph unicode="&#xeb;" horiz-adv-x="1129" d="M122 456v145q0 219 124.5 346t320.5 127q197 0 321 -129t124 -344v-125h-690v-51q0 -118 68 -192.5t189 -74.5q87 0 146 34.5t72 85.5h202q-5 -38 -22.5 -77.5t-52 -79t-81.5 -70t-115 -50t-147 -19.5q-215 0 -337 126t-122 348zM264 1309q0 49 32.5 81t82.5 32t83 -32 t33 -81q0 -48 -33 -80t-83 -32q-49 0 -82 32t-33 80zM322 619h491v15q0 121 -67 195t-178 74t-178.5 -74t-67.5 -195v-15zM640 1309q0 49 32.5 81t79.5 32q52 0 85.5 -32t33.5 -81q0 -48 -33.5 -80t-85.5 -32q-47 0 -79.5 32t-32.5 80z" />
<glyph unicode="&#xec;" horiz-adv-x="594" d="M-30 1582h192l238 -354h-151zM196 0v1056h201v-1056h-201z" />
<glyph unicode="&#xed;" horiz-adv-x="594" d="M196 0v1056h201v-1056h-201zM247 1228l239 354h192l-279 -354h-152z" />
<glyph unicode="&#xee;" horiz-adv-x="594" d="M-22 1225l251 368h138l240 -368h-167l-141 238h-5l-150 -238h-166zM196 0v1056h201v-1056h-201z" />
<glyph unicode="&#xef;" horiz-adv-x="594" d="M-1 1309q0 49 32.5 81t82.5 32t83 -32t33 -81q0 -48 -33 -80t-83 -32q-49 0 -82 32t-33 80zM196 0v1056h201v-1056h-201zM375 1309q0 49 32.5 81t79.5 32q52 0 85.5 -32t33.5 -81q0 -48 -33.5 -80t-85.5 -32q-47 0 -79.5 32t-32.5 80z" />
<glyph unicode="&#xf0;" horiz-adv-x="1169" d="M122 460v84q0 214 122.5 344.5t317.5 130.5q170 0 261 -109h10q-1 2 -6 30t-5 30q-23 121 -132 249l-281 -105l-38 112l234 85q-81 75 -198 153l161 75q121 -58 218 -155l242 88l42 -107l-202 -73q87 -112 133 -255t46 -296v-276q0 -225 -128 -354t-335 -129 q-208 0 -335 126t-127 352zM322 468q0 -143 70 -225t193 -82q122 0 191.5 82t69.5 225v80q0 144 -69.5 220.5t-191.5 76.5q-119 0 -191 -83.5t-72 -223.5v-70z" />
<glyph unicode="&#xf1;" horiz-adv-x="1224" d="M172 0v1056h200v-189h10q12 36 31.5 67.5t55 65t95 53t136.5 19.5q165 0 261 -91t96 -266v-715h-203v653q0 118 -57 177.5t-160 59.5q-127 0 -195 -83t-68 -218v-589h-202zM303 1180q0 110 51 185.5t139 75.5q50 0 85.5 -18t67.5 -62q3 -4 13 -19t15 -20.5t14 -14 t19.5 -12t23.5 -3.5q32 0 50 40.5t21 91.5h127q0 -104 -55 -183.5t-134 -79.5q-56 0 -91.5 19t-62.5 59q-13 19 -21.5 29t-26.5 20.5t-38 10.5q-64 0 -70 -119h-127z" />
<glyph unicode="&#xf2;" horiz-adv-x="1169" d="M122 460v139q0 214 129.5 344.5t333.5 130.5q205 0 333.5 -128t128.5 -347v-139q0 -224 -128 -351t-334 -127q-209 0 -336 126t-127 352zM255 1582h192l238 -354h-151zM324 469q0 -139 68.5 -224.5t192.5 -85.5q123 0 190.5 85.5t67.5 224.5v119q0 137 -69 224t-189 87 t-190.5 -87t-70.5 -224v-119z" />
<glyph unicode="&#xf3;" horiz-adv-x="1169" d="M122 460v139q0 214 129.5 344.5t333.5 130.5q205 0 333.5 -128t128.5 -347v-139q0 -224 -128 -351t-334 -127q-209 0 -336 126t-127 352zM324 469q0 -139 68.5 -224.5t192.5 -85.5q123 0 190.5 85.5t67.5 224.5v119q0 137 -69 224t-189 87t-190.5 -87t-70.5 -224v-119z M532 1228l239 354h192l-279 -354h-152z" />
<glyph unicode="&#xf4;" horiz-adv-x="1169" d="M122 460v139q0 214 129.5 344.5t333.5 130.5q205 0 333.5 -128t128.5 -347v-139q0 -224 -128 -351t-334 -127q-209 0 -336 126t-127 352zM263 1225l251 368h138l240 -368h-167l-141 238h-5l-150 -238h-166zM324 469q0 -139 68.5 -224.5t192.5 -85.5q123 0 190.5 85.5 t67.5 224.5v119q0 137 -69 224t-189 87t-190.5 -87t-70.5 -224v-119z" />
<glyph unicode="&#xf5;" horiz-adv-x="1169" d="M122 460v139q0 214 129.5 344.5t333.5 130.5q205 0 333.5 -128t128.5 -347v-139q0 -224 -128 -351t-334 -127q-209 0 -336 126t-127 352zM275 1180q0 110 51 185.5t139 75.5q50 0 85.5 -18t67.5 -62q3 -4 13 -19t15 -20.5t14 -14t19.5 -12t23.5 -3.5q32 0 50 40.5 t21 91.5h127q0 -104 -55 -183.5t-134 -79.5q-56 0 -91.5 19t-62.5 59q-13 19 -21.5 29t-26.5 20.5t-38 10.5q-64 0 -70 -119h-127zM324 469q0 -139 68.5 -224.5t192.5 -85.5q123 0 190.5 85.5t67.5 224.5v119q0 137 -69 224t-189 87t-190.5 -87t-70.5 -224v-119z" />
<glyph unicode="&#xf6;" horiz-adv-x="1169" d="M122 460v139q0 214 129.5 344.5t333.5 130.5q205 0 333.5 -128t128.5 -347v-139q0 -224 -128 -351t-334 -127q-209 0 -336 126t-127 352zM284 1309q0 49 32.5 81t82.5 32t83 -32t33 -81q0 -48 -33 -80t-83 -32q-49 0 -82 32t-33 80zM324 469q0 -139 68.5 -224.5 t192.5 -85.5q123 0 190.5 85.5t67.5 224.5v119q0 137 -69 224t-189 87t-190.5 -87t-70.5 -224v-119zM660 1309q0 49 32.5 81t79.5 32q52 0 85.5 -32t33.5 -81q0 -48 -33.5 -80t-85.5 -32q-47 0 -79.5 32t-32.5 80z" />
<glyph unicode="&#xf7;" d="M106 477v166h956v-166h-956zM443 959q0 61 40 101.5t98 40.5q61 0 101.5 -40t40.5 -102q0 -60 -41 -99.5t-101 -39.5q-58 0 -98 39.5t-40 99.5zM449 166q0 62 39.5 102.5t97.5 40.5q61 0 101.5 -40.5t40.5 -102.5q0 -60 -40.5 -99.5t-101.5 -39.5q-58 0 -97.5 39.5 t-39.5 99.5z" />
<glyph unicode="&#xf8;" horiz-adv-x="1169" d="M112 5l109 144q-99 126 -99 311v139q0 214 129.5 344.5t333.5 130.5q152 0 269 -81l100 133l99 -79l-107 -143q101 -127 101 -305v-139q0 -224 -128 -351t-334 -127q-155 0 -272 80l-102 -135zM319 446q0 -76 29 -132l403 532q-65 59 -166 59q-121 0 -193.5 -89 t-72.5 -226v-144zM417 212q66 -58 168 -58q124 0 193.5 88t69.5 227v143q0 74 -29 129z" />
<glyph unicode="&#xf9;" horiz-adv-x="1219" d="M165 331v725h202v-670q0 -118 60.5 -169t159.5 -51q109 0 183 68t74 168v654h202v-1056h-200v176h-10q-27 -76 -106.5 -134.5t-205.5 -58.5q-167 0 -263 85t-96 263zM280 1582h192l238 -354h-151z" />
<glyph unicode="&#xfa;" horiz-adv-x="1219" d="M165 331v725h202v-670q0 -118 60.5 -169t159.5 -51q109 0 183 68t74 168v654h202v-1056h-200v176h-10q-27 -76 -106.5 -134.5t-205.5 -58.5q-167 0 -263 85t-96 263zM557 1228l239 354h192l-279 -354h-152z" />
<glyph unicode="&#xfb;" horiz-adv-x="1219" d="M165 331v725h202v-670q0 -118 60.5 -169t159.5 -51q109 0 183 68t74 168v654h202v-1056h-200v176h-10q-27 -76 -106.5 -134.5t-205.5 -58.5q-167 0 -263 85t-96 263zM288 1225l251 368h138l240 -368h-167l-141 238h-5l-150 -238h-166z" />
<glyph unicode="&#xfc;" horiz-adv-x="1219" d="M165 331v725h202v-670q0 -118 60.5 -169t159.5 -51q109 0 183 68t74 168v654h202v-1056h-200v176h-10q-27 -76 -106.5 -134.5t-205.5 -58.5q-167 0 -263 85t-96 263zM309 1309q0 49 32.5 81t82.5 32t83 -32t33 -81q0 -48 -33 -80t-83 -32q-49 0 -82 32t-33 80zM685 1309 q0 49 32.5 81t79.5 32q52 0 85.5 -32t33.5 -81q0 -48 -33.5 -80t-85.5 -32q-47 0 -79.5 32t-32.5 80z" />
<glyph unicode="&#xfd;" horiz-adv-x="1105" d="M58 1056h223l265 -857h9l266 857h214q-364 -1038 -366 -1044l-27 -73q-21 -58 -41 -100.5t-51.5 -86.5t-69.5 -71t-93.5 -44.5t-124.5 -17.5q-66 0 -120 10v165q25 -6 81 -6q91 0 136 38.5t66 117.5l14 47zM501 1228l239 354h192l-279 -354h-152z" />
<glyph unicode="&#xfe;" horiz-adv-x="1217" d="M172 1437h195l2 -548h10q30 79 111 130.5t203 51.5q183 0 291.5 -122t108.5 -338v-165q0 -217 -110 -339t-296 -122q-120 0 -194.5 48.5t-107.5 125.5h-10v-519h-202zM375 438q0 -122 72.5 -198t189.5 -76q115 0 183.5 79t68.5 233v103q0 153 -67.5 233.5t-188.5 80.5 t-189.5 -77.5t-68.5 -214.5v-163z" />
<glyph unicode="&#xff;" horiz-adv-x="1105" d="M58 1056h223l265 -857h9l266 857h214q-364 -1038 -366 -1044l-27 -73q-21 -58 -41 -100.5t-51.5 -86.5t-69.5 -71t-93.5 -44.5t-124.5 -17.5q-66 0 -120 10v165q25 -6 81 -6q91 0 136 38.5t66 117.5l14 47zM253 1309q0 49 32.5 81t82.5 32t83 -32t33 -81q0 -48 -33 -80 t-83 -32q-49 0 -82 32t-33 80zM629 1309q0 49 32.5 81t79.5 32q52 0 85.5 -32t33.5 -81q0 -48 -33.5 -80t-85.5 -32q-47 0 -79.5 32t-32.5 80z" />
<glyph unicode="&#x152;" horiz-adv-x="2011" d="M130 583v187q0 293 148.5 457.5t395.5 164.5q120 0 218 -42.5t151 -124.5h14v140h816v-188h-625v-393h589v-180h-589v-416h625v-188h-816v144h-14q-55 -81 -154 -126.5t-218 -45.5q-250 0 -395.5 162.5t-145.5 448.5zM340 581q0 -205 97 -311.5t255 -106.5q160 0 257 102 t97 306v218q0 205 -97.5 309t-256.5 104q-156 0 -254 -111.5t-98 -318.5v-191z" />
<glyph unicode="&#x153;" horiz-adv-x="1856" d="M122 460v139q0 214 129.5 344.5t333.5 130.5q115 0 207.5 -42.5t145.5 -125.5h13q50 77 141.5 122.5t199.5 45.5q197 0 320.5 -129t123.5 -344v-125h-689v-51q0 -118 68 -192.5t189 -74.5q86 0 145.5 34.5t72.5 85.5h201q-6 -48 -33.5 -97.5t-76.5 -95t-129.5 -74.5 t-178.5 -29q-117 0 -211 45t-142 121h-14q-51 -76 -146.5 -121t-206.5 -45q-209 0 -336 126t-127 352zM324 469q0 -139 68.5 -224.5t192.5 -85.5q123 0 190.5 85.5t67.5 224.5v119q0 137 -69 224t-189 87t-190.5 -87t-70.5 -224v-119zM1047 619h490v15q0 121 -67 195 t-177 74q-111 0 -178.5 -74t-67.5 -195v-15z" />
<glyph unicode="&#x178;" horiz-adv-x="1162" d="M22 1365h232l322 -592h10l325 592h229l-457 -808v-557h-205v554zM287 1580q0 48 31 78t79 30q50 0 81 -30t31 -78q0 -47 -31.5 -77t-80.5 -30q-47 0 -78.5 30.5t-31.5 76.5zM650 1580q0 48 31 78t79 30q50 0 81.5 -30t31.5 -78q0 -47 -31.5 -77t-81.5 -30 q-47 0 -78.5 30.5t-31.5 76.5z" />
<glyph unicode="&#x2c6;" horiz-adv-x="1000" d="M198 1212l251 368h138l240 -368h-167l-141 238h-5l-150 -238h-166z" />
<glyph unicode="&#x2dc;" horiz-adv-x="1000" d="M180 1245q0 110 51 185.5t139 75.5q50 0 85.5 -18t67.5 -62q3 -4 13 -19t15 -20.5t14 -14t19.5 -12t23.5 -3.5q32 0 50 40.5t21 91.5h127q0 -104 -55 -183.5t-134 -79.5q-56 0 -91.5 19t-62.5 59q-13 19 -21.5 29t-26.5 20.5t-38 10.5q-64 0 -70 -119h-127z" />
<glyph unicode="&#x2000;" horiz-adv-x="871" />
<glyph unicode="&#x2001;" horiz-adv-x="1743" />
<glyph unicode="&#x2002;" horiz-adv-x="871" />
<glyph unicode="&#x2003;" horiz-adv-x="1743" />
<glyph unicode="&#x2004;" horiz-adv-x="581" />
<glyph unicode="&#x2005;" horiz-adv-x="435" />
<glyph unicode="&#x2006;" horiz-adv-x="290" />
<glyph unicode="&#x2007;" horiz-adv-x="290" />
<glyph unicode="&#x2008;" horiz-adv-x="217" />
<glyph unicode="&#x2009;" horiz-adv-x="348" />
<glyph unicode="&#x200a;" horiz-adv-x="96" />
<glyph unicode="&#x2010;" horiz-adv-x="840" d="M105 464v192h630v-192h-630z" />
<glyph unicode="&#x2011;" horiz-adv-x="840" d="M105 464v192h630v-192h-630z" />
<glyph unicode="&#x2012;" horiz-adv-x="840" d="M105 464v192h630v-192h-630z" />
<glyph unicode="&#x2013;" horiz-adv-x="1224" d="M0 464v192h1224v-192h-1224z" />
<glyph unicode="&#x2014;" horiz-adv-x="2048" d="M0 464v192h2048v-192h-2048z" />
<glyph unicode="&#x2018;" horiz-adv-x="639" d="M149 800l174 565h167l-112 -565h-229z" />
<glyph unicode="&#x2019;" horiz-adv-x="640" d="M149 800l113 565h229l-174 -565h-168z" />
<glyph unicode="&#x201a;" horiz-adv-x="640" d="M149 -459l113 565h229l-174 -565h-168z" />
<glyph unicode="&#x201c;" horiz-adv-x="1046" d="M149 800l122 565h179l-79 -565h-222zM600 800l122 565h175l-75 -565h-222z" />
<glyph unicode="&#x201d;" horiz-adv-x="1046" d="M149 800l75 565h222l-122 -565h-175zM596 800l79 565h222l-122 -565h-179z" />
<glyph unicode="&#x201e;" horiz-adv-x="1046" d="M149 -458l75 565h222l-122 -565h-175zM596 -458l79 565h222l-122 -565h-179z" />
<glyph unicode="&#x2022;" horiz-adv-x="983" d="M181 605q0 130 90.5 222t217.5 92q128 0 219 -92t91 -222q0 -128 -91.5 -220t-218.5 -92t-217.5 92t-90.5 220z" />
<glyph unicode="&#x2026;" horiz-adv-x="1628" d="M150 134q0 68 44 112t107 44q66 0 110 -43.5t44 -112.5q0 -67 -44 -109.5t-110 -42.5q-63 0 -107 43t-44 109zM657 134q0 68 43.5 112t107.5 44q67 0 110.5 -43.5t43.5 -112.5q0 -67 -44 -109.5t-110 -42.5q-63 0 -107 43t-44 109zM1164 134q0 68 44 112t107 44 q67 0 110.5 -43.5t43.5 -112.5q0 -67 -44 -109.5t-110 -42.5q-63 0 -107 43t-44 109z" />
<glyph unicode="&#x202f;" horiz-adv-x="348" />
<glyph unicode="&#x2039;" horiz-adv-x="842" d="M132 557v8l344 404h212l-339 -403v-6l339 -405h-221z" />
<glyph unicode="&#x203a;" horiz-adv-x="842" d="M130 155l339 405v6l-339 403h212l344 -404v-8l-335 -402h-221z" />
<glyph unicode="&#x205f;" horiz-adv-x="435" />
<glyph unicode="&#x20ac;" d="M57 464v138h119v149h-119v138h122q17 251 134 377t345 126q98 0 175 -26t128 -71t84.5 -107.5t47.5 -131.5t14 -148h-201q0 293 -247 293q-135 0 -199 -74t-74 -238h334v-138h-338v-149h338v-138h-334q9 -164 72 -231.5t200 -67.5q61 0 105.5 14.5t71.5 38.5t43.5 60.5 t22 74t5.5 85.5h201q0 -73 -13 -137.5t-45.5 -126t-82.5 -105.5t-129.5 -70.5t-180.5 -26.5q-231 0 -346 119.5t-131 372.5h-122z" />
<glyph unicode="&#x2122;" horiz-adv-x="1811" d="M94 1233v132h614v-132h-236v-558h-145v558h-233zM884 675v690h153l228 -436h9l227 436h152v-690h-126v464h-10l-209 -403h-79l-208 403h-9v-464h-128z" />
<glyph unicode="&#x25fc;" horiz-adv-x="1055" d="M0 0v1055h1055v-1055h-1055z" />
<glyph unicode="&#xfb01;" horiz-adv-x="1386" d="M87 877v173h176v105q0 156 80 226.5t259 70.5q64 0 127 -7v-164q-37 5 -95 5q-92 0 -132 -32.5t-40 -115.5v-88h243v-173h-240v-877h-202v877h-176zM951 1375q0 59 38.5 96.5t98.5 37.5q62 0 101 -37.5t39 -96.5q0 -58 -39 -95.5t-101 -37.5q-59 0 -98 37.5t-39 95.5z M988 0v1056h202v-1056h-202z" />
<glyph unicode="&#xfb02;" horiz-adv-x="1358" d="M87 877v173h176v105q0 156 80 226.5t259 70.5q64 0 127 -7v-164q-37 5 -95 5q-92 0 -132 -32.5t-40 -115.5v-88h243v-173h-240v-877h-202v877h-176zM977 0v1437h202v-1437h-202z" />
</font>
</defs>
</svg>
