<?xml version="1.0" standalone="no"?>
<!DOCTYPE svg PUBLIC "-//W3C//DTD SVG 1.1//EN" "http://www.w3.org/Graphics/SVG/1.1/DTD/svg11.dtd" >
<svg xmlns="http://www.w3.org/2000/svg">
<metadata></metadata>
<defs>
<font id="san_francisco_textLtIt" horiz-adv-x="1222" >
<font-face units-per-em="2048" ascent="1638" descent="-410" />
<missing-glyph horiz-adv-x="467" />
<glyph horiz-adv-x="0" />
<glyph unicode="&#xd;" horiz-adv-x="0" />
<glyph unicode=" "  horiz-adv-x="467" />
<glyph unicode="&#x09;" horiz-adv-x="467" />
<glyph unicode="&#xa0;" horiz-adv-x="467" />
<glyph unicode="!" horiz-adv-x="589" d="M203 96q0 49 33 82.5t80 33.5q50 0 83 -33t33 -83q0 -47 -33.5 -79.5t-82.5 -32.5q-47 0 -80 32.5t-33 79.5zM312 409l147 955h141l-191 -955h-97z" />
<glyph unicode="&#x22;" horiz-adv-x="869" d="M382 900l60 464h143l-103 -464h-100zM705 900l59 464h144l-103 -464h-100z" />
<glyph unicode="#" horiz-adv-x="1265" d="M167 404l40 107h219l134 357h-206l40 106h207l151 391h110l-150 -391h315l147 391h110l-151 -391h231l-40 -106h-227l-136 -357h215l-40 -107h-215q-20 -53 -85.5 -223t-69.5 -181h-110l154 404h-315q-20 -53 -85.5 -223t-69.5 -181h-110l154 404h-217zM536 511h316 l134 357h-315z" />
<glyph unicode="$" horiz-adv-x="1148" d="M161 332q0 17 2 37h117q-2 -12 -2 -20q0 -88 65 -158.5t172 -95.5l112 568q-5 2 -26 10.5t-26 10.5q-272 118 -272 340q0 167 127 267.5t320 100.5h21l24 119h107l-26 -133q137 -27 220.5 -111.5t83.5 -216.5q0 -24 -1 -26h-108q1 14 0 27q-5 80 -63.5 140.5t-152.5 82.5 l-107 -531q2 -1 27 -11q65 -27 109.5 -49t90.5 -54.5t72.5 -68t43.5 -85t17 -109.5q0 -181 -133 -286.5t-347 -105.5q-10 0 -32 2l-21 -111h-106l24 124q-157 30 -244.5 125.5t-87.5 217.5zM425 1028q0 -83 48.5 -136t149.5 -97q8 -4 28 -12l100 506h-12q-81 0 -150.5 -28 t-116.5 -88.5t-47 -144.5zM617 78h22q154 0 252.5 75t98.5 202q0 99 -62 156t-189 108q-10 3 -14 6z" />
<glyph unicode="%" horiz-adv-x="1488" d="M205 976q0 48 7 90l5 30q20 126 96.5 203t181.5 77q104 0 167 -79t63 -204q0 -47 -8 -90l-5 -30q-19 -125 -96 -204t-183 -79q-107 0 -167.5 78.5t-60.5 207.5zM232 0l557 682l558 682h123l-557 -682l-558 -682h-123zM304 977q0 -88 35.5 -139.5t100.5 -51.5 q67 0 114.5 55t61.5 151l4 22q5 42 5 74q0 88 -35.5 140.5t-99.5 52.5q-67 0 -115 -56.5t-62 -152.5l-3 -17q-6 -37 -6 -78zM963 274q0 48 7 90l5 30q20 126 97 203t181 77t167 -79t63 -204q0 -47 -8 -90l-5 -30q-19 -125 -96 -203.5t-183 -78.5q-107 0 -167.5 78.5 t-60.5 206.5zM1062 275q0 -88 35.5 -139.5t100.5 -51.5q67 0 115 55t61 151l4 22q5 42 5 74q0 88 -35.5 140.5t-98.5 52.5q-68 0 -116 -56.5t-62 -152.5l-3 -17q-6 -37 -6 -78z" />
<glyph unicode="&#x26;" horiz-adv-x="1389" d="M195 350q0 64 21.5 120.5t55 98t85.5 80.5t100.5 65.5t112.5 56.5q4 2 20.5 9.5t19.5 8.5q-41 61 -62 96.5t-45 100t-24 120.5q0 131 98.5 211t248.5 80q145 0 232 -76.5t87 -199.5q0 -64 -25 -118.5t-73 -97t-99.5 -74t-122.5 -63.5q-16 -9 -45 -20l309 -427 q98 132 129 296q19 84 21 144h124q-5 -62 -23 -152q-40 -220 -182 -387l160 -222h-148l-101 140q-196 -162 -434 -162q-107 0 -193 30.5t-139 82.5t-80.5 118t-27.5 141zM327 354q0 -50 19.5 -96.5t56.5 -84.5t99.5 -61t141.5 -23q103 0 197.5 39t162.5 107l-333 465 q-3 -1 -17 -7t-17 -8q-66 -30 -117 -60.5t-97 -71.5t-71 -91.5t-25 -107.5zM604 1095q0 -112 118 -263q2 1 13.5 6t13.5 6q61 25 108 51.5t86.5 60t60.5 74.5t21 88q0 80 -58 124t-145 44q-93 0 -155.5 -51.5t-62.5 -139.5z" />
<glyph unicode="'" horiz-adv-x="546" d="M382 898l60 466h143l-103 -466h-100z" />
<glyph unicode="(" horiz-adv-x="662" d="M246 322q0 157 27.5 303t70.5 255.5t101 207t111 161t109 114.5h120q-45 -42 -91.5 -95.5t-106.5 -150.5t-105 -204.5t-76.5 -260t-31.5 -315.5q0 -196 34 -336.5t95 -264.5h-115q-59 110 -100.5 265t-41.5 321z" />
<glyph unicode=")" horiz-adv-x="658" d="M72 -264q46 46 91.5 101t106 154t104.5 207t75.5 261t31.5 315q0 192 -35.5 329t-98.5 260h117q62 -114 103.5 -263t41.5 -312q0 -191 -41 -368t-107.5 -307.5t-133.5 -222.5t-137 -154h-118z" />
<glyph unicode="*" horiz-adv-x="1011" d="M292 885l318 114l-274 198l64 82l258 -219l34 337l102 -15l-60 -333l308 140l39 -97l-318 -113l274 -198l-64 -82l-257 218l-34 -336l-103 15l60 332l-308 -139z" />
<glyph unicode="+" horiz-adv-x="1177" d="M202 495l18 106h416l78 439h113l-78 -439h419l-18 -106h-419l-82 -462h-113l82 462h-416z" />
<glyph unicode="," horiz-adv-x="524" d="M41 -383l226 535h168l-281 -535h-113z" />
<glyph unicode="-" horiz-adv-x="874" d="M211 506l19 113h633l-20 -113h-632z" />
<glyph unicode="." horiz-adv-x="519" d="M162 96q0 49 33 82.5t80 33.5q49 0 82.5 -33t33.5 -83q0 -47 -33.5 -79.5t-82.5 -32.5q-47 0 -80 32.5t-33 79.5z" />
<glyph unicode="/" horiz-adv-x="704" d="M15 -289l735 1704h120l-735 -1704h-120z" />
<glyph unicode="0" horiz-adv-x="1215" d="M246 472q0 114 20 228l15 91q49 285 182.5 443t339.5 158q194 0 300 -134.5t106 -379.5q0 -112 -19 -217l-16 -91q-50 -281 -183 -440.5t-339 -159.5q-195 0 -300.5 130.5t-105.5 371.5zM371 475q0 -184 73 -286.5t209 -102.5q150 0 252.5 128.5t145.5 376.5l16 91 q18 106 18 208q0 172 -74 279t-212 107q-148 0 -247 -129t-146 -377l-17 -91q-18 -91 -18 -204z" />
<glyph unicode="1" horiz-adv-x="935" d="M334 1030l19 133l356 200h136l-240 -1363h-131l218 1226h-10z" />
<glyph unicode="2" horiz-adv-x="1115" d="M161 0l17 93l593 584q51 50 81.5 83.5t68 83t55.5 99.5t18 101q0 98 -73 165.5t-194 67.5q-123 0 -198 -69t-85 -167h-125q6 146 120 249t294 103q174 0 280.5 -96.5t106.5 -247.5q0 -66 -20 -127t-64 -121t-81.5 -101.5t-103.5 -106.5l-480 -469l-2 -10h661l-20 -114 h-849z" />
<glyph unicode="3" horiz-adv-x="1136" d="M179 301q0 20 4 42h123q-1 -9 -1 -23q0 -94 88.5 -164.5t219.5 -70.5q140 0 234.5 78.5t94.5 209.5q0 124 -87.5 200t-223.5 79l-101 2l20 121q54 -3 119 -3q139 0 238 69.5t99 196.5q0 111 -79.5 176t-201.5 65q-113 0 -182 -55t-84 -126h-126q12 121 117.5 208 t278.5 87q109 0 198 -36.5t146 -115t57 -186.5q0 -78 -28.5 -143.5t-75 -106.5t-99.5 -65t-108 -29l-2 -10q116 -23 185.5 -110.5t69.5 -213.5q0 -183 -130.5 -295t-334.5 -112q-190 0 -309 97.5t-119 233.5z" />
<glyph unicode="4" horiz-adv-x="1178" d="M183 313l15 116q169 246 748 935h194l-163 -937h198l-16 -114h-202l-55 -313h-126l55 313h-648zM340 427h512l146 820h-11q-20 -25 -137 -169t-195.5 -241.5t-174.5 -219t-139 -180.5z" />
<glyph unicode="5" horiz-adv-x="1165" d="M222 300q0 26 4 43h120q-2 -14 -2 -23q0 -88 81.5 -162t214.5 -74q154 0 255.5 104t101.5 266q0 141 -84 225t-214 84q-85 0 -158.5 -35.5t-114.5 -94.5l-123 1l178 730h699l-16 -115h-586l-122 -488l11 -1q36 47 110.5 79t161.5 32q167 0 276.5 -116t109.5 -299 q0 -207 -134 -346.5t-354 -139.5q-101 0 -183 31t-131 81t-75 106.5t-26 111.5z" />
<glyph unicode="6" horiz-adv-x="1173" d="M246 489q0 120 23 256.5t66 243.5q159 386 499 386q156 0 261 -92t105 -220q0 -11 -1 -15h-115q-5 91 -79 150.5t-176 59.5q-170 0 -283 -144t-155 -421h11q40 74 119 126t197 52q167 0 284.5 -113.5t117.5 -301.5q0 -206 -125 -340t-322 -134q-199 0 -313 133.5 t-114 373.5zM377 426q0 -144 82.5 -239.5t217.5 -95.5q143 0 227.5 100t84.5 258q0 139 -84.5 225.5t-215.5 86.5q-138 0 -225 -95t-87 -240z" />
<glyph unicode="7" horiz-adv-x="1079" d="M218 0l783 1239l1 10h-704l14 115h847l-13 -108l-784 -1256h-144z" />
<glyph unicode="8" horiz-adv-x="1199" d="M210 353q0 72 23.5 133t61 102.5t86.5 72t97 45.5t95 18l3 11q-35 16 -66 38.5t-64 57.5t-52.5 87.5t-19.5 114.5q0 159 119.5 259.5t298.5 100.5q110 0 200 -39.5t145.5 -118.5t55.5 -185q0 -74 -27.5 -136t-72.5 -101.5t-97 -63t-105 -28.5l-1 -11q43 -13 83 -38 t80 -64.5t64 -101t24 -136.5q0 -122 -64.5 -214.5t-170.5 -139t-235 -46.5q-91 0 -173 25t-147 71.5t-103 120.5t-38 166zM345 368q0 -132 94.5 -207.5t233.5 -75.5q145 0 241.5 81t96.5 215q0 130 -96 206.5t-234 76.5q-145 0 -240.5 -83.5t-95.5 -212.5zM505 1020 q0 -110 78.5 -176.5t195.5 -66.5q123 0 204.5 73t81.5 187q0 115 -78 180.5t-196 65.5q-125 0 -205.5 -74t-80.5 -189z" />
<glyph unicode="9" horiz-adv-x="1172" d="M224 310v16h119q2 -96 77.5 -159.5t190.5 -63.5q164 0 271 144t150 434l-11 1q-35 -74 -117.5 -128t-198.5 -54q-166 0 -285.5 115.5t-119.5 304.5q0 198 124.5 332.5t320.5 134.5q192 0 308.5 -123t116.5 -364q0 -197 -57 -418q-139 -495 -512 -495q-160 0 -268.5 93 t-108.5 230zM432 925q0 -139 83 -227t213 -88q139 0 226.5 96t87.5 240q0 146 -82 238.5t-218 92.5t-223 -100t-87 -252z" />
<glyph unicode=":" horiz-adv-x="522" d="M164 101q0 49 32.5 82t79.5 33q50 0 83 -33t33 -82q0 -47 -33.5 -80t-82.5 -33q-47 0 -79.5 33t-32.5 80zM289 804q0 49 33 82.5t80 33.5q50 0 83 -33t33 -83q0 -47 -33.5 -79.5t-82.5 -32.5q-47 0 -80 32.5t-33 79.5z" />
<glyph unicode=";" horiz-adv-x="519" d="M22 -383l226 535h168l-281 -535h-113zM287 804q0 49 33 82.5t80 33.5q50 0 83 -33t33 -83q0 -47 -33.5 -79.5t-82.5 -32.5q-47 0 -80 32.5t-33 79.5z" />
<glyph unicode="&#x3c;" horiz-adv-x="1065" d="M235 453l20 117l840 530l-25 -143l-715 -445l-1 -8l570 -407l-24 -133z" />
<glyph unicode="=" horiz-adv-x="1137" d="M213 315l18 105h819l-14 -105h-823zM276 674l18 105h819l-19 -105h-818z" />
<glyph unicode="&#x3e;" horiz-adv-x="1065" d="M154 -35l24 142l713 411l2 8l-565 440l24 122l658 -522l-19 -113z" />
<glyph unicode="?" horiz-adv-x="1000" d="M302 1067q10 66 40 123.5t79 104.5t124 73t168 25q162 -2 267 -83t105 -232q0 -54 -16 -102t-38 -81.5t-61.5 -68.5t-69.5 -56t-79 -52q-102 -65 -139 -104.5t-50 -115.5l-15 -84h-124l16 87q19 108 64 165t173 138q34 22 45.5 29t41.5 28.5t42 33.5t32.5 34.5t29 42 t16 46t7.5 55.5q0 101 -71.5 155t-177.5 55q-123 2 -194 -63.5t-91 -153.5zM407 96q0 49 33 82.5t80 33.5q50 0 83 -33t33 -83q0 -47 -33.5 -79.5t-82.5 -32.5q-47 0 -80 32.5t-33 79.5z" />
<glyph unicode="@" horiz-adv-x="1703" d="M217 408q0 -131 35.5 -240t100 -187.5t155 -133t200.5 -80.5t236 -26q129 0 201 24l17 96q-73 -23 -203 -23q-139 0 -253 36t-199 106.5t-132 182t-47 254.5q0 72 14 153l7 43q51 280 234.5 436t435.5 156q167 0 300.5 -63.5t211 -183.5t77.5 -276q0 -54 -8 -108l-7 -37 q-26 -157 -95.5 -228t-152.5 -71q-61 0 -96 32t-35 81q0 15 3 32l82 470h-106l-23 -134h-7q-5 60 -58 107.5t-145 47.5q-113 0 -188 -76t-99 -211l-17 -90q-8 -41 -8 -92q0 -114 67.5 -185t177.5 -71q89 0 146 42t80 98h8q6 -57 65 -97.5t143 -40.5q131 0 229 92t131 275 l9 46q9 51 9 124q0 127 -48 238.5t-136 195t-220 132t-290 48.5q-195 0 -355.5 -76.5t-272 -229.5t-149.5 -366l-10 -55q-15 -93 -15 -167zM763 422q0 44 6 76l15 72q20 104 70 156.5t120 52.5q76 0 122 -53.5t46 -129.5q0 -22 -5 -54l-16 -96q-18 -103 -70 -151.5 t-123 -48.5q-78 0 -121.5 49t-43.5 127z" />
<glyph unicode="A" d="M59 0l729 1364h137l247 -1364h-132l-74 438h-539l-228 -438h-140zM485 545h463l-111 660h-10z" />
<glyph unicode="B" horiz-adv-x="1265" d="M204 0l240 1364h437q100 0 174.5 -25.5t117 -70t63 -97.5t20.5 -114q0 -132 -84 -225t-200 -116l-1 -8q117 -20 185.5 -97t68.5 -207q0 -189 -145.5 -296.5t-397.5 -107.5h-478zM352 113h344q172 0 285 75.5t113 215.5q0 112 -81 177t-248 65h-319zM466 759h305 q96 0 173.5 31t126 96t48.5 153q0 211 -276 211h-290z" />
<glyph unicode="C" horiz-adv-x="1292" d="M244 482q0 93 11 153l47 249q45 242 190.5 375.5t357.5 133.5q113 0 206 -35.5t151 -93.5t89 -128t31 -142q0 -27 -3 -39h-124v9v13.5v11.5q-3 47 -25 94t-62 91.5t-109.5 72t-156.5 27.5q-169 0 -274.5 -109.5t-142.5 -300.5l-43 -223q-13 -74 -13 -154 q0 -195 104.5 -296t273.5 -101q148 0 242 74t116 185h128q-2 -18 -7 -38q-13 -66 -51 -126t-97.5 -108.5t-147.5 -77t-192 -28.5q-105 0 -194.5 32t-158 93.5t-107.5 160.5t-39 225z" />
<glyph unicode="D" horiz-adv-x="1350" d="M203 0l241 1364h363q263 0 399.5 -137t136.5 -371q0 -78 -11 -149q-1 -9 -12.5 -77.5t-11.5 -72.5q-51 -282 -234 -419.5t-510 -137.5h-361zM353 115h215q259 0 415 113t197 342q21 104 23 136q10 59 10 135q0 197 -110 302t-329 105h-221z" />
<glyph unicode="E" horiz-adv-x="1125" d="M203 0l241 1364h788l-20 -116h-659l-88 -488h628l-19 -115h-629l-93 -530h663l-19 -115h-793z" />
<glyph unicode="F" horiz-adv-x="1095" d="M203 0l242 1364h784l-20 -116h-656l-92 -513h604l-18 -115h-605l-110 -620h-129z" />
<glyph unicode="G" horiz-adv-x="1342" d="M244 482q0 90 12 153l47 249q45 241 194 375t367 134q117 0 212 -36.5t152 -95t87 -127t30 -137.5q0 -27 -3 -39h-125v11v13v10q-2 35 -14.5 72t-40 75t-67.5 67.5t-101 48t-135 18.5q-173 0 -282.5 -110t-145.5 -300l-43 -222q-14 -77 -14 -154q0 -195 105.5 -297 t277.5 -102q87 0 161.5 26.5t133.5 90.5t75 157l37 211h-377l20 115h506l-59 -339q-17 -95 -65.5 -169t-118 -119t-151.5 -67.5t-172 -22.5q-105 0 -195 31t-159.5 92t-109 160.5t-39.5 227.5z" />
<glyph unicode="H" horiz-adv-x="1406" d="M203 0l241 1364h129l-105 -596h740l106 596h129l-241 -1364h-124l110 654h-740l-116 -654h-129z" />
<glyph unicode="I" horiz-adv-x="539" d="M205 0l241 1364h128l-240 -1364h-129z" />
<glyph unicode="J" horiz-adv-x="995" d="M127 280q0 36 6 57h120q-3 -24 -3 -39q0 -88 61 -146.5t162 -58.5q92 0 160.5 58t91.5 190l180 1023h129l-182 -1034q-17 -96 -54 -166.5t-88 -110.5t-108.5 -58.5t-124.5 -18.5q-155 0 -252.5 86.5t-97.5 217.5z" />
<glyph unicode="K" horiz-adv-x="1233" d="M203 0l242 1364h128l-126 -699h9l769 699h166l-662 -609l440 -755h-152l-387 679l-211 -183l-87 -496h-129z" />
<glyph unicode="L" horiz-adv-x="1041" d="M203 0l241 1364h129l-221 -1249h651l-21 -115h-779z" />
<glyph unicode="M" horiz-adv-x="1628" d="M203 0l241 1364h123l294 -1057h6l661 1057h137l-240 -1364h-123l191 1095h-8l-602 -955h-90l-267 955h-9l-190 -1095h-124z" />
<glyph unicode="N" horiz-adv-x="1416" d="M203 0l241 1364h128l540 -1150h8l204 1150h129l-241 -1364h-125l-545 1148h-8l-202 -1148h-129z" />
<glyph unicode="O" horiz-adv-x="1373" d="M241 472q0 103 15 186l40 225q42 239 192 374.5t366 135.5q232 0 377.5 -138.5t145.5 -381.5q0 -82 -15 -164l-41 -225q-45 -246 -190 -380t-381 -134q-106 0 -198.5 34t-162 96.5t-109 158.5t-39.5 213zM371 492q0 -183 107.5 -292t289.5 -109q171 0 281 109.5 t146 312.5l40 231q9 49 9 133q0 178 -107.5 287t-285.5 109q-165 0 -276.5 -103.5t-148.5 -305.5l-40 -221q-15 -80 -15 -151z" />
<glyph unicode="P" horiz-adv-x="1181" d="M203 0l241 1364h432q182 0 284 -97.5t102 -248.5q0 -46 -6 -88q-55 -387 -534 -387h-294l-96 -543h-129zM447 655h292q180 0 275 74.5t113 200.5q6 44 6 76q0 108 -68 176t-211 68h-302z" />
<glyph unicode="Q" horiz-adv-x="1386" d="M241 472q0 103 15 186l40 225q42 239 192 374.5t366 135.5q232 0 377.5 -138.5t145.5 -381.5q0 -82 -15 -164l-42 -229q-54 -293 -247 -423l126 -219h-140l-99 167q-94 -35 -210 -35q-220 0 -364.5 134.5t-144.5 367.5zM371 488q0 -183 107 -291.5t289 -108.5 q69 0 130 22l-152 260h148l117 -206q141 106 183 340l42 240q9 49 9 133q0 178 -107.5 287t-285.5 109q-165 0 -276.5 -103.5t-148.5 -305.5l-40 -221q-15 -80 -15 -155z" />
<glyph unicode="R" horiz-adv-x="1246" d="M203 0l242 1364h443q184 0 281.5 -93.5t97.5 -245.5q0 -49 -7 -90q-23 -138 -114 -225.5t-222 -115.5l198 -594h-140l-188 575q-42 -3 -73 -3h-288l-101 -572h-129zM453 685h291q173 0 267.5 71.5t113.5 191.5q6 33 6 73q0 103 -66 166.5t-207 63.5h-305z" />
<glyph unicode="S" horiz-adv-x="1204" d="M188 333q0 21 4 47h127q-2 -16 -2 -32q0 -107 96 -184t254 -77q150 0 244 74t94 197q0 44 -14.5 80t-36.5 60.5t-60 48t-71.5 38.5t-84.5 34l-80 31q-71 27 -126 57.5t-104.5 75t-76.5 105t-27 134.5q0 171 128 271t326 100q182 0 306.5 -94.5t124.5 -247.5 q0 -4 -1 -20.5t-1 -17.5h-124q2 6 2 22q0 104 -87.5 173t-221.5 69q-131 0 -224 -64.5t-93 -183.5q0 -94 64.5 -153t188.5 -107l94 -37q52 -20 87.5 -36.5t78 -40t69.5 -50t51.5 -61t36 -78t11.5 -96.5q0 -184 -132 -291.5t-346 -107.5q-107 0 -198 30t-150.5 80.5 t-92.5 115.5t-33 136z" />
<glyph unicode="T" horiz-adv-x="1117" d="M276 1248l20 116h1006l-18 -116h-440l-221 -1248h-128l221 1248h-440z" />
<glyph unicode="U" horiz-adv-x="1367" d="M262 411q0 58 13 134l144 819h132l-147 -832q-9 -49 -9 -103q0 -155 94 -246t253 -91q151 0 254 89t132 255l163 928h133l-166 -937q-39 -226 -177 -341.5t-342 -115.5q-213 0 -345 117.5t-132 323.5z" />
<glyph unicode="V" horiz-adv-x="1218" d="M294 1364h139l198 -1202h8l623 1202h143l-725 -1364h-138z" />
<glyph unicode="W" horiz-adv-x="1764" d="M316 1364h138l65 -1173h9l525 1173h125l121 -1173h9l482 1173h139l-579 -1364h-135l-129 1153h-9l-523 -1153h-137z" />
<glyph unicode="X" horiz-adv-x="1209" d="M60 0h160l482 586h8l298 -586h143l-353 678l593 686h-160l-496 -582h-7l-287 582h-144l342 -677z" />
<glyph unicode="Y" horiz-adv-x="1124" d="M266 1364h138l274 -650h8l492 650h154l-600 -766l-104 -598h-129l105 597z" />
<glyph unicode="Z" horiz-adv-x="1195" d="M145 0l17 101l965 1139l1 10h-762l20 114h923l-17 -105l-964 -1136l-2 -10h791l-20 -113h-952z" />
<glyph unicode="[" horiz-adv-x="653" d="M123 -227l281 1591h386l-16 -96h-268l-247 -1398h281l-17 -97h-400z" />
<glyph unicode="\" horiz-adv-x="660" d="M278 1415h120l242 -1704h-120z" />
<glyph unicode="]" horiz-adv-x="653" d="M50 -227l17 97h281l247 1398h-268l17 96h387l-281 -1591h-400z" />
<glyph unicode="^" horiz-adv-x="795" d="M221 797l349 568h128l153 -568h-112l-116 458h-8l-277 -458h-117z" />
<glyph unicode="_" horiz-adv-x="898" d="M-8 -204l21 102h912l-21 -102h-912z" />
<glyph unicode="`" horiz-adv-x="938" d="M478 1556h146l181 -339h-105z" />
<glyph unicode="a" horiz-adv-x="1088" d="M175 269q0 29 2 44q14 134 121 210t296 76h295l14 79q5 37 5 63q0 91 -62 150.5t-181 59.5q-102 0 -164.5 -41t-79.5 -99h-125q20 108 120.5 178.5t258.5 70.5q165 0 260 -83t95 -226q0 -53 -17 -147l-106 -604h-124l25 145l-8 1q-32 -62 -113.5 -112.5t-195.5 -50.5 q-135 0 -225 77.5t-91 208.5zM304 286q0 -87 59 -138.5t157 -51.5q119 0 209 70.5t111 182.5l29 148h-286q-133 0 -206 -58.5t-73 -152.5z" />
<glyph unicode="b" horiz-adv-x="1183" d="M187 0l252 1417h127l-98 -542h10q36 75 114 130t197 55q165 0 266.5 -104.5t101.5 -282.5q0 -68 -9 -122l-33 -190q-30 -171 -143 -274.5t-285 -103.5q-123 0 -212.5 70.5t-112.5 165.5h-10l-38 -219h-127zM397 408q1 -75 26 -136t66.5 -97.5t91.5 -56t103 -19.5 q123 0 207.5 83.5t108.5 220.5l28 160q5 35 5 95q0 135 -76 214.5t-203 79.5t-213 -87.5t-109 -222.5l-30 -176q-5 -30 -5 -58z" />
<glyph unicode="c" horiz-adv-x="1061" d="M207 377q0 70 13 145l26 152q32 187 148.5 286.5t291.5 99.5q172 0 276.5 -93t104.5 -231q0 -15 -1 -18h-119v15q0 87 -71.5 153t-190.5 66q-123 0 -208 -82t-111 -229l-21 -126q-11 -58 -11 -110q0 -147 73 -228t209 -81q105 0 173 45.5t83 113.5h128 q-20 -122 -126 -197t-264 -75q-182 0 -292.5 106t-110.5 288z" />
<glyph unicode="d" horiz-adv-x="1182" d="M207 372q0 76 10 127l36 190q31 171 145 271t284 100q127 0 215.5 -69.5t107.5 -159.5h10l102 586h127l-249 -1417h-124l31 178h-10q-13 -32 -36.5 -63t-60.5 -62t-93.5 -50t-122.5 -19q-164 0 -268 106.5t-104 281.5zM334 393q0 -138 76 -216.5t205 -78.5t215 87 t110 223l32 177q5 27 5 58q0 142 -85.5 225t-203.5 83q-123 0 -207 -81.5t-110 -224.5l-30 -157q-7 -38 -7 -95z" />
<glyph unicode="e" horiz-adv-x="1085" d="M207 374q0 60 15 153l25 138q31 180 148.5 287.5t298.5 107.5q103 0 181 -36.5t120.5 -97.5t60.5 -135q12 -49 11 -100q0 -26 -3 -54q0 -6 -9.5 -64t-13.5 -77h-701q-11 -50 -11 -109q0 -127 69.5 -209t209.5 -82q105 0 175.5 45.5t86.5 106.5h126 q-18 -102 -125.5 -183.5t-270.5 -81.5q-176 0 -284.5 102.5t-108.5 288.5zM361 599h576q6 16 6 42q3 27 3 52q0 101 -54 171q-68 88 -202 88q-118 0 -202 -74.5t-114 -211.5q-1 -3 -7 -33.5t-6 -33.5z" />
<glyph unicode="f" horiz-adv-x="706" d="M218 928l19 105h178l15 88q25 149 106.5 226t232.5 77q68 0 119 -12l-19 -104q-34 9 -99 9q-96 0 -145 -45.5t-67 -142.5l-17 -96h258l-19 -105h-258l-163 -928h-127l164 928h-178z" />
<glyph unicode="g" horiz-adv-x="1176" d="M147 -92q0 16 1 19h124q-1 -3 -1 -17q0 -72 74.5 -127t192.5 -55q276 0 331 301l31 175h-10q-33 -76 -111.5 -128.5t-197.5 -52.5q-99 0 -183.5 46.5t-136.5 136t-52 205.5q0 75 13 143l22 121q36 192 154 288.5t274 96.5q129 0 215 -68t110 -161h10l37 212h125 l-182 -1037q-69 -388 -457 -388q-170 0 -276.5 84.5t-106.5 205.5zM334 433q0 -144 77 -223.5t207 -79.5q120 0 207 86t110 218l22 122q9 57 9 92q0 136 -81.5 219.5t-207.5 83.5q-119 0 -203 -82.5t-111 -232.5l-17 -92q-12 -62 -12 -111z" />
<glyph unicode="h" horiz-adv-x="1182" d="M188 0l249 1417h127l-99 -550h9q40 88 123 140.5t197 52.5q153 0 240.5 -93t87.5 -232q0 -58 -16 -148l-103 -587h-128l105 594q12 60 12 118q0 105 -60 172t-173 67q-135 0 -222 -93.5t-111 -229.5l-111 -628h-127z" />
<glyph unicode="i" horiz-adv-x="535" d="M204 0l184 1043h127l-184 -1043h-127zM390 1358q0 43 28.5 72t70.5 29q44 0 73 -29t29 -72q0 -42 -29.5 -71t-72.5 -29q-41 0 -70 29t-29 71z" />
<glyph unicode="j" horiz-adv-x="535" d="M-96 -324l23 106q36 -9 77 -9q78 0 126.5 47.5t64.5 138.5l192 1084h128l-191 -1076q-28 -159 -106.5 -231t-225.5 -72q-40 0 -88 12zM390 1358q0 43 29 72t71 29q44 0 73 -29t29 -72q0 -42 -29.5 -71t-72.5 -29q-41 0 -70.5 29t-29.5 71z" />
<glyph unicode="k" horiz-adv-x="1056" d="M183 0l251 1417h126l-144 -822h9l561 454h178l-524 -419l349 -630h-143l-306 561l-152 -120l-77 -441h-128z" />
<glyph unicode="l" horiz-adv-x="536" d="M205 0l249 1417h128l-250 -1417h-127z" />
<glyph unicode="m" horiz-adv-x="1753" d="M187 0l183 1043h125l-31 -176h9q36 85 112 139t184 54q118 0 193 -58t100 -147h9q14 34 37.5 66t60.5 65.5t93.5 53.5t123.5 20q147 0 226.5 -87.5t79.5 -225.5q0 -61 -17 -152l-104 -595h-127l105 603q11 57 11 114q0 107 -50.5 170.5t-152.5 63.5q-119 0 -193.5 -90 t-100.5 -237l-111 -624h-127l106 607q10 52 10 112q0 108 -53 170t-154 62q-65 0 -119 -26t-91.5 -72t-62.5 -103.5t-37 -124.5l-110 -625h-127z" />
<glyph unicode="n" horiz-adv-x="1178" d="M187 0l183 1043h126l-32 -176h9q42 90 124 141.5t194 51.5q155 0 240 -93t85 -232q0 -60 -16 -148l-103 -587h-128l105 594q12 75 12 118q0 104 -59 171.5t-171 67.5q-135 0 -221 -93.5t-110 -229.5l-111 -628h-127z" />
<glyph unicode="o" horiz-adv-x="1129" d="M207 382q0 76 11 137l25 143q33 191 154 294.5t290 103.5q183 0 299 -108.5t116 -303.5q0 -54 -11 -120l-26 -144q-35 -192 -151.5 -296.5t-302.5 -104.5q-177 0 -290.5 107.5t-113.5 291.5zM331 400q0 -137 79.5 -221t214.5 -84q126 0 209.5 83.5t110.5 237.5l23 133 q7 39 7 101q0 132 -79.5 215t-212.5 83q-120 0 -205.5 -77t-113.5 -234l-22 -126q-11 -61 -11 -111z" />
<glyph unicode="p" horiz-adv-x="1182" d="M123 -362l247 1405h125l-30 -168h10q32 74 110 129.5t199 55.5q165 0 268 -104.5t103 -282.5q0 -75 -9 -122l-33 -190q-27 -171 -143 -274.5t-289 -103.5q-124 0 -212 72t-108 164h-10l-101 -581h-127zM392 408q1 -75 26 -136t66.5 -97.5t91 -56t102.5 -19.5 q124 0 210 84t110 220l28 160q6 42 6 95q0 135 -78 214.5t-206 79.5q-127 0 -213 -87.5t-109 -222.5l-30 -176q-4 -29 -4 -47v-11z" />
<glyph unicode="q" horiz-adv-x="1180" d="M207 372q0 76 10 127l36 190q31 169 146 270t285 101q126 0 214.5 -69t108.5 -160h11l36 212h125l-250 -1404h-127l97 537h-10q-15 -32 -37.5 -61t-59 -60t-92 -50t-121.5 -19q-162 0 -267 106t-105 280zM335 393q0 -137 76.5 -215.5t204.5 -78.5q130 0 216 87t109 222 l30 176q5 26 5 61q0 141 -85 223.5t-202 82.5q-122 0 -206.5 -84t-110.5 -222l-31 -157q-6 -34 -6 -95z" />
<glyph unicode="r" horiz-adv-x="769" d="M187 0l183 1043h122l-32 -178h10q33 83 110 139t187 56q54 0 96 -11l-27 -120q-32 13 -93 13q-133 0 -214.5 -91t-105.5 -234l-108 -617h-128z" />
<glyph unicode="s" horiz-adv-x="1009" d="M153 277q0 3 0.5 9.5t0.5 7.5h123q-2 -11 0 -22q9 -78 87.5 -129t190.5 -51q114 0 184.5 51t70.5 140q0 35 -13.5 63.5t-31 46.5t-53.5 35.5t-60 26.5t-72 24q-35 11 -56 18.5t-56 23t-57 29.5t-49 37t-42.5 48t-26.5 59t-11 73q0 136 97.5 215.5t263.5 79.5 q162 0 262.5 -82.5t100.5 -198.5v-22h-121q1 3 1 14q0 74 -68 129.5t-176 55.5q-103 0 -168 -49t-65 -127q0 -34 13.5 -61.5t31.5 -45.5t53.5 -35.5t61.5 -27t73 -25.5q56 -18 93.5 -33.5t79 -40.5t65.5 -53.5t40 -71t16 -95.5q0 -149 -106.5 -230t-281.5 -81 q-170 0 -282.5 85t-112.5 210z" />
<glyph unicode="t" horiz-adv-x="746" d="M221 928l19 105h178l50 280h126l-49 -280h249l-18 -105h-250l-101 -577q-17 -106 -17 -134q0 -55 31.5 -83t106.5 -28q74 0 128 10l-20 -106q-55 -11 -136 -11q-128 0 -184.5 48.5t-56.5 139.5q0 50 13 122l110 619h-179z" />
<glyph unicode="u" horiz-adv-x="1165" d="M231 304q0 64 17 155l106 584h126l-106 -592q-12 -68 -12 -124q0 -105 62.5 -167t177.5 -62q134 0 218.5 92t108.5 229l109 624h123l-183 -1043h-121l32 181h-10q-38 -88 -121 -143t-194 -55q-153 0 -243 90.5t-90 230.5z" />
<glyph unicode="v" horiz-adv-x="1006" d="M236 1043h131l133 -899h8l449 899h130l-537 -1043h-137z" />
<glyph unicode="w" horiz-adv-x="1429" d="M221 1043h130l75 -893h8l379 893h116l85 -893h7l378 893h131l-468 -1043h-134l-82 859h-6l-363 -859h-141z" />
<glyph unicode="x" horiz-adv-x="996" d="M63 0l449 527l-269 516h138l217 -429h7l358 429h149l-451 -523l276 -520h-141l-220 429h-6l-360 -429h-147z" />
<glyph unicode="y" horiz-adv-x="1026" d="M78 -328l24 105q39 -9 80 -9q58 0 101 23t69 57.5t53 91.5l35 71l-200 1032h136l151 -890h9l453 890h137l-556 -1044l-46 -89q-37 -71 -67.5 -113.5t-72 -76t-94.5 -47t-127 -13.5q-46 0 -85 12z" />
<glyph unicode="z" horiz-adv-x="943" d="M112 0l21 122l724 807l1 10h-604l18 104h759l-23 -118l-723 -807l-1 -10h606l-18 -108h-760z" />
<glyph unicode="{" horiz-adv-x="739" d="M197 516l26 148q100 0 145.5 47t64.5 157l46 255q17 95 53.5 158.5t92 96t116.5 45t144 12.5h46l-18 -103h-50q-230 0 -267 -214l-53 -297q-19 -109 -68 -161.5t-134 -58.5l-4 -21q75 -8 109 -64t16 -156q-66 -371 -66 -393q-6 -92 36 -130t160 -38h50l-18 -104h-54 q-159 0 -230.5 59.5t-61.5 186.5q0 42 58 372q19 109 -9.5 156t-129.5 47z" />
<glyph unicode="|" horiz-adv-x="641" d="M215 -289l300 1704h120l-300 -1704h-120z" />
<glyph unicode="}" horiz-adv-x="738" d="M7 -305l18 104h50q230 0 267 214l61 347q19 109 67.5 161.5t134.5 58.5l4 21q-74 8 -108 64t-16 156q58 322 58 342q6 93 -36 131t-161 38h-50l18 103h53q160 0 232 -58.5t62 -183.5q0 -55 -14 -145.5t-28 -161t-14 -75.5q-6 -77 26 -112t118 -35l-26 -148 q-100 0 -145.5 -46.5t-64.5 -156.5l-54 -303q-14 -77 -41 -133.5t-62.5 -91t-85 -55t-101 -28t-117.5 -7.5h-45z" />
<glyph unicode="~" horiz-adv-x="1155" d="M197 573q9 116 88 202.5t192 86.5q42 0 77.5 -11.5t70.5 -39t51.5 -43.5t52.5 -54q31 -33 51.5 -52t52.5 -35t65 -16q66 0 111 51.5t59 122.5h114q-14 -114 -92.5 -200t-193.5 -86q-72 0 -125 32.5t-106 89.5q-6 7 -24.5 26.5t-26 27t-24 23t-27 22t-26 15t-30.5 12 t-31 3.5q-59 0 -105.5 -48t-60.5 -129h-113z" />
<glyph unicode="&#xa1;" horiz-adv-x="589" d="M173 -320l191 955h97l-147 -955h-141zM341 947q0 47 34 79.5t83 32.5q46 0 79 -32.5t33 -79.5q0 -49 -33 -82.5t-79 -33.5q-50 0 -83.5 33.5t-33.5 82.5z" />
<glyph unicode="&#xa2;" horiz-adv-x="1107" d="M208 533q0 76 12 144l26 152q31 184 146 284.5t287 102.5h7l44 243h106l-46 -254q128 -27 203 -113t75 -200q0 -3 -0.5 -10.5t-0.5 -8.5h-120q1 3 1 16q0 86 -72 152t-191 66q-123 0 -207.5 -81.5t-110.5 -229.5l-22 -125q-11 -59 -11 -111q0 -147 73.5 -228t209.5 -81 q105 0 172.5 45.5t82.5 113.5h129q-21 -122 -127 -197t-263 -75h-9l-40 -228h-107l43 241q-135 30 -212.5 130t-77.5 252z" />
<glyph unicode="&#xa3;" horiz-adv-x="1107" d="M107 0l20 116q29 0 43.5 0.5t43.5 5.5t46.5 14t42 28t40.5 46.5t32 70.5t26 98l48 271h-217l19 104h213l63 355q25 139 118 211.5t232 72.5q160 0 254 -93.5t86 -230.5q0 -7 -1 -9h-118v6q7 85 -52.5 150t-166.5 65q-100 0 -157.5 -54.5t-74.5 -149.5l-57 -323h315 l-19 -104h-311l-49 -278q-35 -201 -155 -251v-12h721l-20 -109h-965z" />
<glyph unicode="&#xa4;" horiz-adv-x="1113" d="M149 337l207 153q-41 77 -41 172q0 139 99 240l-139 194l87 64l138 -193q76 43 171 43q136 0 236 -102l226 165l61 -89l-226 -164q42 -78 42 -170q1 -142 -108 -250l129 -178l-86 -63l-130 180q-69 -36 -157 -36q-140 0 -240 100l-208 -154zM409 655q1 -107 75 -183 t178 -76q106 0 180 76t74 183q0 109 -74 185t-180 76q-104 0 -178.5 -76.5t-74.5 -184.5z" />
<glyph unicode="&#xa5;" horiz-adv-x="1115" d="M265 1364h138l274 -650h9l491 650h155l-544 -693h241l-17 -96h-285l-29 -165h284l-16 -97h-285l-54 -313h-128l54 313h-274l16 97h275l29 165h-274l17 96h228z" />
<glyph unicode="&#xa6;" horiz-adv-x="575" d="M184 -309l121 685h108l-121 -685h-108zM377 783l115 654h108l-115 -654h-108z" />
<glyph unicode="&#xa7;" horiz-adv-x="1011" d="M128 44q0 21 5 43l120 -2q-1 -4 -1 -15q1 -102 82 -155t195 -53q112 0 182.5 55t70.5 146q0 72 -56 116.5t-182 93.5l-8 3l-8 3q-149 55 -223 125t-74 182q0 98 65 168t163 97l1 7q-49 32 -87 89.5t-38 138.5q0 142 105.5 224t262.5 82q63 0 124.5 -18t114 -52t85 -91 t32.5 -128q0 -24 -5 -54l-118 2q3 18 3 34q0 90 -73.5 142t-169.5 52q-95 0 -165 -48t-70 -134q0 -80 57 -129.5t182 -100.5q71 -29 116 -52.5t91 -59t68.5 -82.5t22.5 -106q0 -98 -55.5 -169.5t-146.5 -110.5v-7q115 -87 115 -203q0 -152 -113.5 -240t-279.5 -88 q-65 0 -131 17.5t-125.5 51.5t-96.5 93t-37 133zM359 595q0 -67 48.5 -115t140.5 -88q47 -21 145 -51q69 18 122.5 75t53.5 136q0 122 -191 199q-97 39 -118 45q-78 -10 -139.5 -67.5t-61.5 -133.5z" />
<glyph unicode="&#xa8;" horiz-adv-x="938" d="M433 1294q0 39 26.5 64t65.5 25q40 0 66.5 -25t26.5 -64q0 -38 -26.5 -63.5t-66.5 -25.5q-39 0 -65.5 25.5t-26.5 63.5zM765 1294q0 38 26.5 63.5t63.5 25.5q41 0 68 -25t27 -64q0 -38 -27 -63.5t-68 -25.5q-37 0 -63.5 25.5t-26.5 63.5z" />
<glyph unicode="&#xa9;" horiz-adv-x="1721" d="M261 613q0 55 7 104l13 107q21 175 118.5 312.5t254 214.5t346.5 77q153 0 285 -52t223.5 -141t143.5 -211.5t52 -259.5q0 -57 -6 -93l-13 -106q-35 -281 -234.5 -454.5t-491.5 -173.5q-204 0 -364 88.5t-247 242t-87 345.5zM362 608q0 -170 76.5 -301t212 -202 t307.5 -71q252 0 425.5 146.5t202.5 390.5l14 111q4 35 4 72q0 166 -81.5 298.5t-220 205t-306.5 72.5q-248 0 -418 -146.5t-197 -370.5l-14 -110q-5 -39 -5 -95zM661 586q0 48 9 102l18 103q24 133 105.5 204t210.5 71q122 0 199 -66t79 -167v-9h-98v4q-2 59 -52.5 103.5 t-126.5 44.5q-88 0 -146 -55.5t-75 -155.5l-14 -85q-7 -41 -7 -69q0 -105 51.5 -160t150.5 -55q67 0 111.5 25.5t55.5 67.5h104q-17 -85 -93 -135.5t-186 -50.5q-131 0 -213.5 76t-82.5 207z" />
<glyph unicode="&#xaa;" horiz-adv-x="692" d="M284 897q0 87 63 132t173 45h142q7 35 7 45q2 10 2 18q0 47 -30.5 74t-84.5 27q-43 0 -75 -18t-39 -48h-95q10 62 67 105t150 43q95 0 148.5 -47.5t53.5 -134.5q0 -16 -4 -42l-61 -351h-95l14 75h-6q-17 -34 -58.5 -59t-100.5 -25q-74 0 -122.5 42.5t-48.5 118.5z M383 905q0 -40 28 -64t75 -24q56 0 97.5 33.5t51.5 86.5q10 39 13 68h-134q-63 0 -97 -28t-34 -72z" />
<glyph unicode="&#xab;" horiz-adv-x="1271" d="M264 557l2 8l424 404h152l-428 -411l-1 -6l268 -397h-142zM702 557l2 8l424 404h153l-429 -411l-1 -6l268 -397h-142z" />
<glyph unicode="&#xac;" horiz-adv-x="1113" d="M198 493l18 106h897l-85 -476h-113l66 370h-783z" />
<glyph unicode="&#xad;" horiz-adv-x="874" d="M211 506l19 113h633l-20 -113h-632z" />
<glyph unicode="&#xae;" horiz-adv-x="1214" d="M285 873q0 20 2 30l4 26q11 210 142.5 337.5t341.5 127.5q207 0 340.5 -126t133.5 -328q0 -23 -2 -31l-3 -31q-15 -214 -144.5 -338.5t-341.5 -124.5q-210 0 -341.5 124.5t-131.5 333.5zM363 873q0 -177 110 -279.5t285 -102.5q178 0 285.5 104t121.5 284l4 31q2 16 2 30 q0 170 -112.5 274t-283.5 104q-177 0 -287.5 -107.5t-118.5 -283.5l-4 -27q-2 -10 -2 -27zM555 655l93 520h177q77 0 115.5 -38t38.5 -104q0 -16 -2 -27q-7 -49 -39.5 -84.5t-82.5 -49.5l73 -217h-80l-65 207h-30h-86l-36 -207h-76zM678 924h93q113 0 130 86q3 24 3 26 q0 33 -24 54t-68 21h-100z" />
<glyph unicode="&#xaf;" horiz-adv-x="938" d="M367 1237l15 84h643l-15 -84h-643z" />
<glyph unicode="&#xb0;" horiz-adv-x="713" d="M272 1110q0 112 79.5 191t192.5 79q111 0 190.5 -79t79.5 -191t-79.5 -192t-190.5 -80q-113 0 -192.5 79.5t-79.5 192.5zM373 1110q0 -69 51.5 -120t119.5 -51q71 0 121 50.5t50 120.5q0 71 -50 121t-121 50q-69 0 -120 -50.5t-51 -120.5z" />
<glyph unicode="&#xb1;" horiz-adv-x="1122" d="M123 137l19 107h926l-19 -107h-926zM213 672l19 106h409l51 291h106l-51 -291h411l-19 -106h-411l-54 -307h-106l54 307h-409z" />
<glyph unicode="&#xb2;" horiz-adv-x="690" d="M299 705l13 74l276 256q29 28 46.5 47.5t34.5 50.5t17 59q0 41 -29 68t-79 27q-52 0 -83.5 -29.5t-34.5 -73.5h-97q7 86 68.5 139t153.5 53q90 0 147 -49t57 -129q0 -62 -34 -112t-101 -112l-200 -181v-1h302l-15 -87h-442z" />
<glyph unicode="&#xb3;" horiz-adv-x="684" d="M254 864v23h90v-2q2 -46 38.5 -75.5t91.5 -29.5q56 0 93 29.5t37 85.5q0 93 -125 108q-15 2 -51 2l4 87q6 -1 55 -1q59 0 104 28t45 78q0 42 -31.5 67.5t-78.5 25.5q-45 0 -72 -22t-34 -53h-100q8 71 64.5 116t142.5 45t147.5 -44.5t61.5 -125.5q0 -66 -40.5 -109 t-95.5 -54v-1q51 -16 80 -57.5t29 -97.5q0 -89 -67.5 -144.5t-173.5 -52.5q-97 3 -153 52.5t-61 121.5z" />
<glyph unicode="&#xb4;" horiz-adv-x="938" d="M477 1217l280 339h144l-322 -339h-102z" />
<glyph unicode="&#xb6;" horiz-adv-x="1244" d="M347 930q0 15 3 29q5 100 49 179t114.5 127.5t158.5 74t186 25.5h145l-278 -1575h-126l128 726l-20 4q-43 7 -88.5 25t-95 52.5t-88 79t-63.5 110.5t-25 143zM889 -210l278 1575h126l-278 -1575h-126z" />
<glyph unicode="&#xb7;" horiz-adv-x="519" d="M271 717q0 49 33 82.5t80 33.5q50 0 83 -33.5t33 -82.5q0 -47 -33.5 -79.5t-82.5 -32.5q-47 0 -80 32.5t-33 79.5z" />
<glyph unicode="&#xb8;" horiz-adv-x="938" d="M219 -446l14 84q64 -22 134 -22q50 0 86.5 21t36.5 68q0 78 -138 83l-50 2l9 66l51 156h99l-46 -149q83 -3 135.5 -41.5t52.5 -111.5q0 -86 -66 -135t-163 -49q-84 0 -155 28z" />
<glyph unicode="&#xb9;" horiz-adv-x="617" d="M342 1162l17 100l178 102h98l-116 -659h-98l97 552h-5z" />
<glyph unicode="&#xba;" horiz-adv-x="715" d="M290 1002q-17 -125 50.5 -199.5t181.5 -74.5q98 0 165 57t84 161q1 4 4.5 24.5t3.5 21.5q6 36 6 48q16 122 -52.5 197.5t-180.5 75.5q-96 0 -163 -57t-85 -160l-9 -46q-5 -30 -5 -48zM382 994q0 3 2.5 22t2.5 21l7 37q13 74 56 115.5t104 41.5q71 0 110 -51.5t28 -130.5 q0 -14 -5 -44l-7 -37q-12 -73 -53.5 -115t-106.5 -42q-73 0 -111 51.5t-27 131.5z" />
<glyph unicode="&#xbb;" horiz-adv-x="1267" d="M182 155l426 411l1 6l-268 397h140l277 -403l-2 -8l-421 -403h-153zM621 155l425 411l1 6l-268 397h140l277 -403l-1 -8l-422 -403h-152z" />
<glyph unicode="&#xbc;" horiz-adv-x="1514" d="M221 0l557 682l558 682h123l-557 -682l-558 -682h-123zM308 1162l17 100l178 102h98l-116 -659h-98l97 552h-5zM889 143l12 79q25 36 58.5 80t77 97t73.5 88.5t81.5 96.5t66.5 78h145l-76 -439h92l-12 -80h-93l-25 -143h-97l25 143h-328zM1008 223h222l64 353h-6 q-22 -27 -85.5 -104.5t-112.5 -138.5t-81 -105z" />
<glyph unicode="&#xbd;" horiz-adv-x="1514" d="M216 0l557 682l558 682h123l-557 -682l-558 -682h-123zM305 1162l17 100l178 102h98l-116 -659h-98l97 552h-5zM984 0l13 75l277 256q29 28 46.5 47.5t34.5 50.5t17 59q0 42 -29 69t-79 27q-52 0 -83.5 -30t-34.5 -74h-98q7 87 69 140t154 53q90 0 147 -49.5t57 -129.5 q0 -62 -34 -112t-101 -112l-200 -181v-1h302l-15 -88h-443z" />
<glyph unicode="&#xbe;" horiz-adv-x="1456" d="M138 864v23h90v-2q2 -46 38.5 -75.5t91.5 -29.5q56 0 93 29.5t37 85.5q0 93 -125 108q-15 2 -51 2l4 87q6 -1 55 -1q59 0 104 28t45 78q0 42 -31.5 67.5t-78.5 25.5q-45 0 -72 -22t-34 -53h-100q8 71 64.5 116t142.5 45t147.5 -44.5t61.5 -125.5q0 -66 -40.5 -109 t-95.5 -54v-1q51 -16 80 -57.5t29 -97.5q0 -89 -67.5 -144.5t-173.5 -52.5q-97 3 -153 52.5t-61 121.5zM204 0l557 682l558 682h123l-557 -682l-558 -682h-123zM896 143l13 79q30 44 81 109t87.5 109t104 123.5t83.5 98.5h146l-76 -439h92l-13 -80h-92l-25 -143h-97l25 143 h-329zM1016 223h221l65 353h-6q-22 -27 -85.5 -104.5t-112.5 -138.5t-81 -105z" />
<glyph unicode="&#xbf;" horiz-adv-x="999" d="M105 -2q0 54 16 102t37.5 81t61.5 68.5t69.5 56t79.5 52.5q103 66 139.5 105t49.5 115l15 83h123l-15 -86q-19 -108 -64 -165.5t-173 -137.5q-37 -24 -53 -34.5t-47.5 -33.5t-46.5 -41t-33.5 -44t-26 -55t-7.5 -62q0 -100 71 -154t178 -56q123 -1 194 64.5t90 152.5h125 q-11 -66 -40.5 -123.5t-78.5 -104.5t-124.5 -73.5t-168.5 -25.5q-104 2 -186.5 36t-133.5 106.5t-51 173.5zM554 979q0 47 33.5 80t82.5 33q47 0 80 -33t33 -80q0 -49 -33 -82t-80 -33q-50 0 -83 33t-33 82z" />
<glyph unicode="&#xc0;" d="M59 0l729 1364h137l247 -1364h-132l-74 438h-539l-228 -438h-140zM485 545h463l-111 660h-10zM561 1712h163l278 -209h-141z" />
<glyph unicode="&#xc1;" d="M59 0l729 1364h137l247 -1364h-132l-74 438h-539l-228 -438h-140zM485 545h463l-111 660h-10zM749 1503l302 209h170l-326 -209h-146z" />
<glyph unicode="&#xc2;" d="M59 0l729 1364h137l247 -1364h-132l-74 438h-539l-228 -438h-140zM485 545h463l-111 660h-10zM554 1487l302 225h131l203 -225h-131l-146 152h-9l-207 -152h-143z" />
<glyph unicode="&#xc3;" d="M59 0l729 1364h137l247 -1364h-132l-74 438h-539l-228 -438h-140zM485 545h463l-111 660h-10zM576 1490q0 91 45 150t131 59q45 0 80.5 -19.5t76.5 -62.5q15 -17 18 -20l15.5 -15.5t19 -15.5t18 -7t23.5 -4q38 0 61 39.5t26 89.5h96q0 -84 -49.5 -148t-127.5 -64 q-56 0 -90.5 18t-69.5 56q-20 22 -29.5 31.5t-28.5 21t-38 11.5q-77 0 -81 -120h-96z" />
<glyph unicode="&#xc4;" d="M59 0l729 1364h137l247 -1364h-132l-74 438h-539l-228 -438h-140zM485 545h463l-111 660h-10zM634 1582q0 36 25 60t62 24q36 0 61 -24t25 -60t-25 -59.5t-61 -23.5q-37 0 -62 23.5t-25 59.5zM976 1582q0 36 24.5 60t59.5 24q38 0 63.5 -23.5t25.5 -60.5 q0 -36 -25.5 -59.5t-63.5 -23.5q-35 0 -59.5 23.5t-24.5 59.5z" />
<glyph unicode="&#xc5;" d="M59 0l720 1347q-44 23 -71 66t-27 95q0 75 52.5 127t128.5 52q75 0 127.5 -52t52.5 -127q0 -56 -31.5 -101.5t-81.5 -65.5l243 -1341h-132l-74 438h-539l-228 -438h-140zM485 545h463l-111 660h-10zM752 1508q0 -44 33 -77t77 -33q46 0 78.5 33t32.5 77q0 46 -32.5 78.5 t-78.5 32.5q-44 0 -77 -33t-33 -78z" />
<glyph unicode="&#xc6;" horiz-adv-x="1842" d="M32 0l1065 1364h852l-20 -116h-659l-87 -488h627l-18 -115h-629l-94 -530h663l-19 -115h-792l78 445h-469l-349 -445h-149zM607 553h411l119 643h-28z" />
<glyph unicode="&#xc7;" horiz-adv-x="1292" d="M244 482q0 93 11 153l47 249q45 242 190.5 375.5t357.5 133.5q113 0 206 -35.5t151 -93.5t89 -128t31 -142q0 -27 -3 -39h-124v9v13.5v11.5q-3 47 -25 94t-62 91.5t-109.5 72t-156.5 27.5q-169 0 -274.5 -109.5t-142.5 -300.5l-43 -223q-13 -74 -13 -154 q0 -195 104.5 -296t273.5 -101q148 0 242 74t116 185h128q-2 -18 -7 -38q-13 -65 -50.5 -124.5t-96.5 -108t-145 -77.5t-188 -30h-16l-33 -108q83 -3 135.5 -41.5t52.5 -111.5q0 -86 -66 -135t-163 -49q-83 0 -156 28l15 84q64 -22 134 -22q50 0 86.5 21t36.5 68 q0 78 -139 83l-50 2l10 66l39 123q-177 30 -285 158.5t-108 344.5z" />
<glyph unicode="&#xc8;" horiz-adv-x="1125" d="M203 0l241 1364h788l-20 -116h-659l-88 -488h628l-19 -115h-629l-93 -530h663l-19 -115h-793zM530 1712h163l278 -209h-141z" />
<glyph unicode="&#xc9;" horiz-adv-x="1125" d="M203 0l241 1364h788l-20 -116h-659l-88 -488h628l-19 -115h-629l-93 -530h663l-19 -115h-793zM718 1503l302 209h170l-326 -209h-146z" />
<glyph unicode="&#xca;" horiz-adv-x="1125" d="M203 0l241 1364h788l-20 -116h-659l-88 -488h628l-19 -115h-629l-93 -530h663l-19 -115h-793zM523 1487l302 225h131l203 -225h-131l-146 152h-9l-207 -152h-143z" />
<glyph unicode="&#xcb;" horiz-adv-x="1125" d="M203 0l241 1364h788l-20 -116h-659l-88 -488h628l-19 -115h-629l-93 -530h663l-19 -115h-793zM603 1582q0 36 25 60t62 24q36 0 61 -24t25 -60t-25 -59.5t-61 -23.5q-37 0 -62 23.5t-25 59.5zM945 1582q0 36 24.5 60t59.5 24q38 0 63.5 -23.5t25.5 -60.5 q0 -36 -25.5 -59.5t-63.5 -23.5q-35 0 -59.5 23.5t-24.5 59.5z" />
<glyph unicode="&#xcc;" horiz-adv-x="539" d="M205 0l241 1364h128l-240 -1364h-129zM218 1712h163l278 -209h-141z" />
<glyph unicode="&#xcd;" horiz-adv-x="539" d="M205 0l241 1364h128l-240 -1364h-129zM406 1503l302 209h170l-326 -209h-146z" />
<glyph unicode="&#xce;" horiz-adv-x="539" d="M205 0l241 1364h128l-240 -1364h-129zM211 1487l302 225h131l203 -225h-131l-146 152h-9l-207 -152h-143z" />
<glyph unicode="&#xcf;" horiz-adv-x="539" d="M205 0l241 1364h128l-240 -1364h-129zM291 1582q0 36 25 60t62 24q36 0 61 -24t25 -60t-25 -59.5t-61 -23.5q-37 0 -62 23.5t-25 59.5zM633 1582q0 36 24.5 60t59.5 24q38 0 63.5 -23.5t25.5 -60.5q0 -36 -25.5 -59.5t-63.5 -23.5q-35 0 -59.5 23.5t-24.5 59.5z" />
<glyph unicode="&#xd0;" horiz-adv-x="1423" d="M231 642l20 113h158l108 609h364q263 0 399.5 -137t136.5 -371q0 -78 -11 -149q-5 -40 -25 -150q-50 -281 -233.5 -419t-510.5 -138h-360l113 642h-159zM426 115h215q529 0 613 455q1 5 11.5 67t11.5 69q9 61 9 135q0 197 -109.5 302t-329.5 105h-220l-88 -493h333 l-20 -113h-333z" />
<glyph unicode="&#xd1;" horiz-adv-x="1416" d="M203 0l241 1364h128l540 -1150h8l204 1150h129l-241 -1364h-125l-545 1148h-8l-202 -1148h-129zM679 1490q0 91 45 150t131 59q45 0 80.5 -19.5t76.5 -62.5q15 -17 18 -20l15.5 -15.5t19 -15.5t18 -7t23.5 -4q38 0 61 39.5t26 89.5h96q0 -84 -49.5 -148t-127.5 -64 q-56 0 -90.5 18t-69.5 56q-20 22 -29.5 31.5t-28.5 21t-38 11.5q-77 0 -81 -120h-96z" />
<glyph unicode="&#xd2;" horiz-adv-x="1373" d="M241 472q0 103 15 186l40 225q42 239 192 374.5t366 135.5q232 0 377.5 -138.5t145.5 -381.5q0 -82 -15 -164l-41 -225q-45 -246 -190 -380t-381 -134q-106 0 -198.5 34t-162 96.5t-109 158.5t-39.5 213zM371 492q0 -183 107.5 -292t289.5 -109q171 0 281 109.5 t146 312.5l40 231q9 49 9 133q0 178 -107.5 287t-285.5 109q-165 0 -276.5 -103.5t-148.5 -305.5l-40 -221q-15 -80 -15 -151zM631 1712h163l278 -209h-141z" />
<glyph unicode="&#xd3;" horiz-adv-x="1373" d="M241 472q0 103 15 186l40 225q42 239 192 374.5t366 135.5q232 0 377.5 -138.5t145.5 -381.5q0 -82 -15 -164l-41 -225q-45 -246 -190 -380t-381 -134q-106 0 -198.5 34t-162 96.5t-109 158.5t-39.5 213zM371 492q0 -183 107.5 -292t289.5 -109q171 0 281 109.5 t146 312.5l40 231q9 49 9 133q0 178 -107.5 287t-285.5 109q-165 0 -276.5 -103.5t-148.5 -305.5l-40 -221q-15 -80 -15 -151zM819 1503l302 209h170l-326 -209h-146z" />
<glyph unicode="&#xd4;" horiz-adv-x="1373" d="M241 472q0 103 15 186l40 225q42 239 192 374.5t366 135.5q232 0 377.5 -138.5t145.5 -381.5q0 -82 -15 -164l-41 -225q-45 -246 -190 -380t-381 -134q-106 0 -198.5 34t-162 96.5t-109 158.5t-39.5 213zM371 492q0 -183 107.5 -292t289.5 -109q171 0 281 109.5 t146 312.5l40 231q9 49 9 133q0 178 -107.5 287t-285.5 109q-165 0 -276.5 -103.5t-148.5 -305.5l-40 -221q-15 -80 -15 -151zM624 1487l302 225h131l203 -225h-131l-146 152h-9l-207 -152h-143z" />
<glyph unicode="&#xd5;" horiz-adv-x="1373" d="M241 472q0 103 15 186l40 225q42 239 192 374.5t366 135.5q232 0 377.5 -138.5t145.5 -381.5q0 -82 -15 -164l-41 -225q-45 -246 -190 -380t-381 -134q-106 0 -198.5 34t-162 96.5t-109 158.5t-39.5 213zM371 492q0 -183 107.5 -292t289.5 -109q171 0 281 109.5 t146 312.5l40 231q9 49 9 133q0 178 -107.5 287t-285.5 109q-165 0 -276.5 -103.5t-148.5 -305.5l-40 -221q-15 -80 -15 -151zM646 1490q0 91 45 150t131 59q45 0 80.5 -19.5t76.5 -62.5q15 -17 18 -20l15.5 -15.5t19 -15.5t18 -7t23.5 -4q38 0 61 39.5t26 89.5h96 q0 -84 -49.5 -148t-127.5 -64q-56 0 -90.5 18t-69.5 56q-20 22 -29.5 31.5t-28.5 21t-38 11.5q-77 0 -81 -120h-96z" />
<glyph unicode="&#xd6;" horiz-adv-x="1373" d="M241 472q0 103 15 186l40 225q42 239 192 374.5t366 135.5q232 0 377.5 -138.5t145.5 -381.5q0 -82 -15 -164l-41 -225q-45 -246 -190 -380t-381 -134q-106 0 -198.5 34t-162 96.5t-109 158.5t-39.5 213zM371 492q0 -183 107.5 -292t289.5 -109q171 0 281 109.5 t146 312.5l40 231q9 49 9 133q0 178 -107.5 287t-285.5 109q-165 0 -276.5 -103.5t-148.5 -305.5l-40 -221q-15 -80 -15 -151zM704 1582q0 36 25 60t62 24q36 0 61 -24t25 -60t-25 -59.5t-61 -23.5q-37 0 -62 23.5t-25 59.5zM1046 1582q0 36 24.5 60t59.5 24 q38 0 63.5 -23.5t25.5 -60.5q0 -36 -25.5 -59.5t-63.5 -23.5q-35 0 -59.5 23.5t-24.5 59.5z" />
<glyph unicode="&#xd7;" horiz-adv-x="1107" d="M211 177l357 308l-260 317l77 70l262 -319l373 312l62 -75l-373 -312l262 -317l-78 -70l-262 318l-358 -308z" />
<glyph unicode="&#xd8;" horiz-adv-x="1373" d="M138 141l137 126q-37 93 -37 205q0 102 15 187l40 224q43 239 192.5 374.5t365.5 135.5q139 0 250.5 -52t180.5 -150l128 118l68 -72l-147 -135q43 -103 43 -229q0 -81 -15 -164l-41 -225q-45 -246 -189.5 -380t-380.5 -134q-136 0 -247 53.5t-178 153.5l-121 -112z M369 492q0 -71 14 -126l801 736q-50 81 -137 126t-199 45q-164 0 -275.5 -103t-148.5 -306l-41 -220q-14 -76 -14 -152zM423 267q49 -84 137.5 -130t205.5 -46q171 0 280.5 109.5t145.5 312.5l40 231q10 55 10 133q0 69 -18 128z" />
<glyph unicode="&#xd9;" horiz-adv-x="1367" d="M262 411q0 58 13 134l144 819h132l-147 -832q-9 -49 -9 -103q0 -155 94 -246t253 -91q151 0 254 89t132 255l163 928h133l-166 -937q-39 -226 -177 -341.5t-342 -115.5q-213 0 -345 117.5t-132 323.5zM636 1712h163l278 -209h-141z" />
<glyph unicode="&#xda;" horiz-adv-x="1367" d="M262 411q0 58 13 134l144 819h132l-147 -832q-9 -49 -9 -103q0 -155 94 -246t253 -91q151 0 254 89t132 255l163 928h133l-166 -937q-39 -226 -177 -341.5t-342 -115.5q-213 0 -345 117.5t-132 323.5zM824 1503l302 209h170l-326 -209h-146z" />
<glyph unicode="&#xdb;" horiz-adv-x="1367" d="M262 411q0 58 13 134l144 819h132l-147 -832q-9 -49 -9 -103q0 -155 94 -246t253 -91q151 0 254 89t132 255l163 928h133l-166 -937q-39 -226 -177 -341.5t-342 -115.5q-213 0 -345 117.5t-132 323.5zM629 1487l302 225h131l203 -225h-131l-146 152h-9l-207 -152h-143z " />
<glyph unicode="&#xdc;" horiz-adv-x="1367" d="M262 411q0 58 13 134l144 819h132l-147 -832q-9 -49 -9 -103q0 -155 94 -246t253 -91q151 0 254 89t132 255l163 928h133l-166 -937q-39 -226 -177 -341.5t-342 -115.5q-213 0 -345 117.5t-132 323.5zM709 1582q0 36 25 60t62 24q36 0 61 -24t25 -60t-25 -59.5t-61 -23.5 q-37 0 -62 23.5t-25 59.5zM1051 1582q0 36 24.5 60t59.5 24q38 0 63.5 -23.5t25.5 -60.5q0 -36 -25.5 -59.5t-63.5 -23.5q-35 0 -59.5 23.5t-24.5 59.5z" />
<glyph unicode="&#xdd;" horiz-adv-x="1124" d="M266 1364h138l274 -650h8l492 650h154l-600 -766l-104 -598h-129l105 597zM695 1503l302 209h170l-326 -209h-146z" />
<glyph unicode="&#xde;" horiz-adv-x="1184" d="M202 0l243 1363h126l-47 -270h310q180 0 276.5 -89.5t96.5 -231.5q0 -35 -8 -80q-27 -180 -154.5 -269t-372.5 -89h-283l-60 -334h-127zM408 444h286q178 0 267 64t112 187q6 32 6 70q0 97 -64 157t-204 60h-306z" />
<glyph unicode="&#xdf;" horiz-adv-x="1234" d="M204 0l204 1154q24 133 125.5 211t255.5 78q169 0 286 -94t117 -256q0 -77 -28.5 -143t-74.5 -109.5t-99 -70.5t-106 -35l-1 -6q129 -21 216.5 -113.5t87.5 -250.5q0 -93 -35.5 -168t-95.5 -123t-137.5 -73.5t-164.5 -25.5q-124 0 -241 47l20 110q35 -18 96 -32.5 t123 -14.5q59 0 112.5 17t98 50t70.5 89.5t26 128.5q0 140 -95.5 224t-233.5 84h-79l23 128h90q128 0 215 75.5t87 206.5q0 117 -80 181t-198 64q-104 0 -172 -51.5t-85 -148.5l-199 -1133h-128z" />
<glyph unicode="&#xe0;" horiz-adv-x="1088" d="M175 269q0 29 2 44q14 134 121 210t296 76h295l14 79q5 37 5 63q0 91 -62 150.5t-181 59.5q-102 0 -164.5 -41t-79.5 -99h-125q20 108 120.5 178.5t258.5 70.5q165 0 260 -83t95 -226q0 -53 -17 -147l-106 -604h-124l25 145l-8 1q-32 -62 -113.5 -112.5t-195.5 -50.5 q-135 0 -225 77.5t-91 208.5zM304 286q0 -87 59 -138.5t157 -51.5q119 0 209 70.5t111 182.5l29 148h-286q-133 0 -206 -58.5t-73 -152.5zM483 1557h146l181 -339h-105z" />
<glyph unicode="&#xe1;" horiz-adv-x="1088" d="M175 269q0 29 2 44q14 134 121 210t296 76h295l14 79q5 37 5 63q0 91 -62 150.5t-181 59.5q-102 0 -164.5 -41t-79.5 -99h-125q20 108 120.5 178.5t258.5 70.5q165 0 260 -83t95 -226q0 -53 -17 -147l-106 -604h-124l25 145l-8 1q-32 -62 -113.5 -112.5t-195.5 -50.5 q-135 0 -225 77.5t-91 208.5zM304 286q0 -87 59 -138.5t157 -51.5q119 0 209 70.5t111 182.5l29 148h-286q-133 0 -206 -58.5t-73 -152.5zM616 1218l280 339h144l-322 -339h-102z" />
<glyph unicode="&#xe2;" horiz-adv-x="1088" d="M175 269q0 29 2 44q14 134 121 210t296 76h295l14 79q5 37 5 63q0 91 -62 150.5t-181 59.5q-102 0 -164.5 -41t-79.5 -99h-125q20 108 120.5 178.5t258.5 70.5q165 0 260 -83t95 -226q0 -53 -17 -147l-106 -604h-124l25 145l-8 1q-32 -62 -113.5 -112.5t-195.5 -50.5 q-135 0 -225 77.5t-91 208.5zM304 286q0 -87 59 -138.5t157 -51.5q119 0 209 70.5t111 182.5l29 148h-286q-133 0 -206 -58.5t-73 -152.5zM429 1211l300 339h98l184 -339h-116l-126 252h-6l-213 -252h-121z" />
<glyph unicode="&#xe3;" horiz-adv-x="1088" d="M175 269q0 29 2 44q14 134 121 210t296 76h295l14 79q5 37 5 63q0 91 -62 150.5t-181 59.5q-102 0 -164.5 -41t-79.5 -99h-125q20 108 120.5 178.5t258.5 70.5q165 0 260 -83t95 -226q0 -53 -17 -147l-106 -604h-124l25 145l-8 1q-32 -62 -113.5 -112.5t-195.5 -50.5 q-135 0 -225 77.5t-91 208.5zM304 286q0 -87 59 -138.5t157 -51.5q119 0 209 70.5t111 182.5l29 148h-286q-133 0 -206 -58.5t-73 -152.5zM382 1208q11 110 63.5 170.5t135.5 60.5q32 0 58.5 -9.5t49 -30.5t34 -35.5t31.5 -42.5q16 -23 27 -35.5t28 -22.5t36 -10 q39 0 66 38.5t38 95.5h100q-7 -96 -66 -165.5t-144 -69.5q-51 0 -86 25t-68 71q-2 3 -9.5 14t-10 15t-9.5 13.5t-11 13t-10.5 10.5t-12 10.5t-13 7t-15.5 5t-16 1.5q-72 0 -95 -130h-101z" />
<glyph unicode="&#xe4;" horiz-adv-x="1088" d="M175 269q0 29 2 44q14 134 121 210t296 76h295l14 79q5 37 5 63q0 91 -62 150.5t-181 59.5q-102 0 -164.5 -41t-79.5 -99h-125q20 108 120.5 178.5t258.5 70.5q165 0 260 -83t95 -226q0 -53 -17 -147l-106 -604h-124l25 145l-8 1q-32 -62 -113.5 -112.5t-195.5 -50.5 q-135 0 -225 77.5t-91 208.5zM304 286q0 -87 59 -138.5t157 -51.5q119 0 209 70.5t111 182.5l29 148h-286q-133 0 -206 -58.5t-73 -152.5zM478 1304q0 39 26.5 64t65.5 25q40 0 66.5 -25t26.5 -64q0 -38 -26.5 -63.5t-66.5 -25.5q-39 0 -65.5 25.5t-26.5 63.5zM810 1304 q0 38 26.5 63.5t63.5 25.5q41 0 68 -25t27 -64q0 -38 -27 -63.5t-68 -25.5q-37 0 -63.5 25.5t-26.5 63.5z" />
<glyph unicode="&#xe5;" horiz-adv-x="1088" d="M175 269q0 29 2 44q14 134 121 210t296 76h295l14 79q5 37 5 63q0 91 -62 150.5t-181 59.5q-102 0 -164.5 -41t-79.5 -99h-125q20 108 120.5 178.5t258.5 70.5q165 0 260 -83t95 -226q0 -53 -17 -147l-106 -604h-124l25 145l-8 1q-32 -62 -113.5 -112.5t-195.5 -50.5 q-135 0 -225 77.5t-91 208.5zM304 286q0 -87 59 -138.5t157 -51.5q119 0 209 70.5t111 182.5l29 148h-286q-133 0 -206 -58.5t-73 -152.5zM572 1394q0 75 53 127t129 52q74 0 126.5 -52t52.5 -127q0 -76 -52.5 -129t-126.5 -53q-76 0 -129 53t-53 129zM643 1393 q0 -45 33 -77.5t77 -32.5q46 0 78.5 32.5t32.5 77.5q0 46 -32.5 78t-78.5 32q-44 0 -77 -32.5t-33 -77.5z" />
<glyph unicode="&#xe6;" horiz-adv-x="1738" d="M175 278q0 155 111.5 238t309.5 83h293l14 84q5 30 5 60q0 90 -62.5 149t-180.5 59q-102 0 -164.5 -41t-79.5 -99h-125q20 108 120.5 178.5t256.5 70.5q118 0 201.5 -43.5t119.5 -124.5h2q126 168 352 168q83 0 150 -24t110.5 -65t71 -95.5t36.5 -114.5t2 -124 q0 -6 -9.5 -64t-13.5 -77h-701q-11 -67 -11 -109q0 -128 69 -209.5t209 -81.5q105 0 176 45.5t87 106.5h126q-17 -100 -125 -182.5t-267 -82.5q-138 0 -232 68.5t-125 184.5h-2q-43 -108 -143.5 -180.5t-248.5 -72.5q-153 0 -242.5 77.5t-89.5 217.5zM304 284q0 -86 59 -137 t157 -51q119 0 209 70.5t111 182.5l29 148h-286q-134 0 -206.5 -59.5t-72.5 -153.5zM1012 599h579q6 24 6 42q16 134 -50.5 222.5t-202.5 88.5q-119 0 -203.5 -74.5t-114.5 -211.5q-5 -22 -8 -36.5t-4 -21t-2 -9.5z" />
<glyph unicode="&#xe7;" horiz-adv-x="1061" d="M207 377q0 70 13 145l26 152q32 187 148.5 286.5t291.5 99.5q172 0 276.5 -93t104.5 -231q0 -15 -1 -18h-119v15q0 87 -71.5 153t-190.5 66q-123 0 -208 -82t-111 -229l-21 -126q-11 -58 -11 -110q0 -147 73 -228t209 -81q105 0 173 45.5t83 113.5h128 q-20 -122 -126 -197t-264 -75h-21l-37 -120q83 -3 135.5 -41.5t52.5 -111.5q0 -86 -66 -135t-164 -49q-82 0 -155 28l14 84q66 -22 135 -22q50 0 86.5 21t36.5 68q0 78 -139 83l-50 2l10 66l45 141q-133 31 -209.5 130.5t-76.5 249.5z" />
<glyph unicode="&#xe8;" horiz-adv-x="1085" d="M207 374q0 60 15 153l25 138q31 180 148.5 287.5t298.5 107.5q103 0 181 -36.5t120.5 -97.5t60 -135t8.5 -154q0 -6 -9.5 -64t-13.5 -77h-701q-11 -50 -11 -109q0 -127 69.5 -209t209.5 -82q105 0 175.5 45.5t86.5 106.5h126q-18 -102 -125.5 -183.5t-270.5 -81.5 q-176 0 -284.5 102.5t-108.5 288.5zM361 599h576q6 16 6 42q17 134 -50.5 222.5t-202.5 88.5q-118 0 -202 -74.5t-114 -211.5q-1 -3 -7 -33.5t-6 -33.5zM514 1557h146l181 -339h-105z" />
<glyph unicode="&#xe9;" horiz-adv-x="1085" d="M207 374q0 60 15 153l25 138q31 180 148.5 287.5t298.5 107.5q103 0 181 -36.5t120.5 -97.5t60 -135t8.5 -154q0 -6 -9.5 -64t-13.5 -77h-701q-11 -50 -11 -109q0 -127 69.5 -209t209.5 -82q105 0 175.5 45.5t86.5 106.5h126q-18 -102 -125.5 -183.5t-270.5 -81.5 q-176 0 -284.5 102.5t-108.5 288.5zM361 599h576q6 16 6 42q17 134 -50.5 222.5t-202.5 88.5q-118 0 -202 -74.5t-114 -211.5q-1 -3 -7 -33.5t-6 -33.5zM648 1218l280 339h144l-322 -339h-102z" />
<glyph unicode="&#xea;" horiz-adv-x="1085" d="M207 374q0 60 15 153l25 138q31 180 148.5 287.5t298.5 107.5q103 0 181 -36.5t120.5 -97.5t60 -135t8.5 -154q0 -6 -9.5 -64t-13.5 -77h-701q-11 -50 -11 -109q0 -127 69.5 -209t209.5 -82q105 0 175.5 45.5t86.5 106.5h126q-18 -102 -125.5 -183.5t-270.5 -81.5 q-176 0 -284.5 102.5t-108.5 288.5zM361 599h576q6 16 6 42q17 134 -50.5 222.5t-202.5 88.5q-118 0 -202 -74.5t-114 -211.5q-1 -3 -7 -33.5t-6 -33.5zM461 1211l300 339h98l184 -339h-116l-126 252h-6l-213 -252h-121z" />
<glyph unicode="&#xeb;" horiz-adv-x="1085" d="M207 374q0 60 15 153l25 138q31 180 148.5 287.5t298.5 107.5q103 0 181 -36.5t120.5 -97.5t60 -135t8.5 -154q0 -6 -9.5 -64t-13.5 -77h-701q-11 -50 -11 -109q0 -127 69.5 -209t209.5 -82q105 0 175.5 45.5t86.5 106.5h126q-18 -102 -125.5 -183.5t-270.5 -81.5 q-176 0 -284.5 102.5t-108.5 288.5zM361 599h576q6 16 6 42q17 134 -50.5 222.5t-202.5 88.5q-118 0 -202 -74.5t-114 -211.5q-1 -3 -7 -33.5t-6 -33.5zM510 1304q0 39 26.5 64t65.5 25q40 0 66.5 -25t26.5 -64q0 -38 -26.5 -63.5t-66.5 -25.5q-39 0 -65.5 25.5t-26.5 63.5z M842 1304q0 38 26.5 63.5t63.5 25.5q41 0 68 -25t27 -64q0 -38 -27 -63.5t-68 -25.5q-37 0 -63.5 25.5t-26.5 63.5z" />
<glyph unicode="&#xec;" horiz-adv-x="555" d="M205 0l185 1043h127l-184 -1043h-128zM243 1557h146l181 -339h-105z" />
<glyph unicode="&#xed;" horiz-adv-x="555" d="M205 0l185 1043h127l-184 -1043h-128zM376 1218l280 339h144l-322 -339h-102z" />
<glyph unicode="&#xee;" horiz-adv-x="555" d="M189 1211l300 339h98l184 -339h-116l-126 252h-6l-213 -252h-121zM205 0l185 1043h127l-184 -1043h-128z" />
<glyph unicode="&#xef;" horiz-adv-x="555" d="M205 0l185 1043h127l-184 -1043h-128zM238 1304q0 39 26.5 64t65.5 25q40 0 66.5 -25t26.5 -64q0 -38 -26.5 -63.5t-66.5 -25.5q-39 0 -65.5 25.5t-26.5 63.5zM570 1304q0 38 26.5 63.5t63.5 25.5q41 0 68 -25t27 -64q0 -38 -27 -63.5t-68 -25.5q-37 0 -63.5 25.5 t-26.5 63.5z" />
<glyph unicode="&#xf0;" horiz-adv-x="1181" d="M207 399q0 57 10 113l18 104q32 189 154 292t289 103q69 0 127 -18t97 -49t64.5 -64t41.5 -70l6 -1q3 27 3 88q3 164 -84 316l-295 -57l-10 82l257 50q-72 102 -166 174l87 77q113 -83 204 -229l252 49l13 -79l-222 -43q82 -167 82 -373q0 -91 -17 -188l-53 -302 q-34 -191 -154.5 -293t-290.5 -102q-183 0 -298 112.5t-115 307.5zM332 407q0 -141 77 -227t210 -86q129 0 214 83.5t111 234.5l20 111q8 45 8 80q0 133 -80 213.5t-208 80.5q-127 0 -215 -82.5t-115 -234.5l-14 -75q-8 -53 -8 -98z" />
<glyph unicode="&#xf1;" horiz-adv-x="1178" d="M187 0l183 1043h126l-32 -176h9q42 90 124 141.5t194 51.5q155 0 240 -93t85 -232q0 -60 -16 -148l-103 -587h-128l105 594q12 75 12 118q0 104 -59 171.5t-171 67.5q-135 0 -221 -93.5t-110 -229.5l-111 -628h-127zM466 1208q11 110 63.5 170.5t135.5 60.5 q32 0 58.5 -9.5t49 -30.5t34 -35.5t31.5 -42.5q16 -23 27 -35.5t28 -22.5t36 -10q39 0 66 38.5t38 95.5h100q-7 -96 -66 -165.5t-144 -69.5q-51 0 -86 25t-68 71q-2 3 -9.5 14t-10 15t-9.5 13.5t-11 13t-10.5 10.5t-12 10.5t-13 7t-15.5 5t-16 1.5q-72 0 -95 -130h-101z" />
<glyph unicode="&#xf2;" horiz-adv-x="1129" d="M207 382q0 76 11 137l25 143q33 191 154 294.5t290 103.5q183 0 299 -108.5t116 -303.5q0 -54 -11 -120l-26 -144q-35 -192 -151.5 -296.5t-302.5 -104.5q-177 0 -290.5 107.5t-113.5 291.5zM331 400q0 -137 79.5 -221t214.5 -84q126 0 209.5 83.5t110.5 237.5l23 133 q7 39 7 101q0 132 -79.5 215t-212.5 83q-120 0 -205.5 -77t-113.5 -234l-22 -126q-11 -61 -11 -111zM533 1557h146l181 -339h-105z" />
<glyph unicode="&#xf3;" horiz-adv-x="1129" d="M207 382q0 76 11 137l25 143q33 191 154 294.5t290 103.5q183 0 299 -108.5t116 -303.5q0 -54 -11 -120l-26 -144q-35 -192 -151.5 -296.5t-302.5 -104.5q-177 0 -290.5 107.5t-113.5 291.5zM331 400q0 -137 79.5 -221t214.5 -84q126 0 209.5 83.5t110.5 237.5l23 133 q7 39 7 101q0 132 -79.5 215t-212.5 83q-120 0 -205.5 -77t-113.5 -234l-22 -126q-11 -61 -11 -111zM666 1218l280 339h144l-322 -339h-102z" />
<glyph unicode="&#xf4;" horiz-adv-x="1129" d="M207 382q0 76 11 137l25 143q33 191 154 294.5t290 103.5q183 0 299 -108.5t116 -303.5q0 -54 -11 -120l-26 -144q-35 -192 -151.5 -296.5t-302.5 -104.5q-177 0 -290.5 107.5t-113.5 291.5zM331 400q0 -137 79.5 -221t214.5 -84q126 0 209.5 83.5t110.5 237.5l23 133 q7 39 7 101q0 132 -79.5 215t-212.5 83q-120 0 -205.5 -77t-113.5 -234l-22 -126q-11 -61 -11 -111zM479 1211l300 339h98l184 -339h-116l-126 252h-6l-213 -252h-121z" />
<glyph unicode="&#xf5;" horiz-adv-x="1129" d="M207 382q0 76 11 137l25 143q33 191 154 294.5t290 103.5q183 0 299 -108.5t116 -303.5q0 -54 -11 -120l-26 -144q-35 -192 -151.5 -296.5t-302.5 -104.5q-177 0 -290.5 107.5t-113.5 291.5zM331 400q0 -137 79.5 -221t214.5 -84q126 0 209.5 83.5t110.5 237.5l23 133 q7 39 7 101q0 132 -79.5 215t-212.5 83q-120 0 -205.5 -77t-113.5 -234l-22 -126q-11 -61 -11 -111zM432 1208q11 110 63.5 170.5t135.5 60.5q32 0 58.5 -9.5t49 -30.5t34 -35.5t31.5 -42.5q16 -23 27 -35.5t28 -22.5t36 -10q39 0 66 38.5t38 95.5h100q-7 -96 -66 -165.5 t-144 -69.5q-51 0 -86 25t-68 71q-2 3 -9.5 14t-10 15t-9.5 13.5t-11 13t-10.5 10.5t-12 10.5t-13 7t-15.5 5t-16 1.5q-72 0 -95 -130h-101z" />
<glyph unicode="&#xf6;" horiz-adv-x="1129" d="M207 382q0 76 11 137l25 143q33 191 154 294.5t290 103.5q183 0 299 -108.5t116 -303.5q0 -54 -11 -120l-26 -144q-35 -192 -151.5 -296.5t-302.5 -104.5q-177 0 -290.5 107.5t-113.5 291.5zM331 400q0 -137 79.5 -221t214.5 -84q126 0 209.5 83.5t110.5 237.5l23 133 q7 39 7 101q0 132 -79.5 215t-212.5 83q-120 0 -205.5 -77t-113.5 -234l-22 -126q-11 -61 -11 -111zM528 1304q0 39 26.5 64t65.5 25q40 0 66.5 -25t26.5 -64q0 -38 -26.5 -63.5t-66.5 -25.5q-39 0 -65.5 25.5t-26.5 63.5zM860 1304q0 38 26.5 63.5t63.5 25.5q41 0 68 -25 t27 -64q0 -38 -27 -63.5t-68 -25.5q-37 0 -63.5 25.5t-26.5 63.5z" />
<glyph unicode="&#xf7;" horiz-adv-x="1155" d="M201 490l19 107h926l-19 -107h-926zM501 157q0 47 31 78.5t76 31.5q47 0 79 -31.5t32 -78.5q0 -45 -32 -76t-79 -31q-44 0 -75.5 31t-31.5 76zM607 917q0 47 31.5 78.5t76.5 31.5q47 0 78.5 -31.5t31.5 -78.5q0 -45 -32 -76t-78 -31q-45 0 -76.5 31t-31.5 76z" />
<glyph unicode="&#xf8;" horiz-adv-x="1129" d="M98 95l137 120q-30 77 -30 167q0 78 12 137l24 143q34 191 155 294.5t289 103.5q108 0 196 -39.5t142 -116.5l129 112l65 -75l-145 -126q28 -76 28 -167q0 -62 -11 -120l-25 -144q-35 -193 -152 -297t-303 -104q-102 0 -186 38t-137 108l-126 -109zM330 400q0 -52 11 -92 l587 512q-37 60 -100.5 94t-145.5 34q-120 0 -205.5 -77t-113.5 -234l-23 -126q-10 -55 -10 -111zM382 214q79 -119 241 -119q127 0 210.5 83.5t110.5 237.5l23 133q6 40 6 101q0 35 -8 70z" />
<glyph unicode="&#xf9;" horiz-adv-x="1165" d="M231 304q0 64 17 155l106 584h126l-106 -592q-12 -68 -12 -124q0 -105 62.5 -167t177.5 -62q134 0 218.5 92t108.5 229l109 624h123l-183 -1043h-121l32 181h-10q-38 -88 -121 -143t-194 -55q-153 0 -243 90.5t-90 230.5zM550 1557h146l181 -339h-105z" />
<glyph unicode="&#xfa;" horiz-adv-x="1165" d="M231 304q0 64 17 155l106 584h126l-106 -592q-12 -68 -12 -124q0 -105 62.5 -167t177.5 -62q134 0 218.5 92t108.5 229l109 624h123l-183 -1043h-121l32 181h-10q-38 -88 -121 -143t-194 -55q-153 0 -243 90.5t-90 230.5zM684 1218l280 339h144l-322 -339h-102z" />
<glyph unicode="&#xfb;" horiz-adv-x="1165" d="M231 304q0 64 17 155l106 584h126l-106 -592q-12 -68 -12 -124q0 -105 62.5 -167t177.5 -62q134 0 218.5 92t108.5 229l109 624h123l-183 -1043h-121l32 181h-10q-38 -88 -121 -143t-194 -55q-153 0 -243 90.5t-90 230.5zM497 1211l300 339h98l184 -339h-116l-126 252h-6 l-213 -252h-121z" />
<glyph unicode="&#xfc;" horiz-adv-x="1165" d="M231 304q0 64 17 155l106 584h126l-106 -592q-12 -68 -12 -124q0 -105 62.5 -167t177.5 -62q134 0 218.5 92t108.5 229l109 624h123l-183 -1043h-121l32 181h-10q-38 -88 -121 -143t-194 -55q-153 0 -243 90.5t-90 230.5zM546 1304q0 39 26.5 64t65.5 25q40 0 66.5 -25 t26.5 -64q0 -38 -26.5 -63.5t-66.5 -25.5q-39 0 -65.5 25.5t-26.5 63.5zM878 1304q0 38 26.5 63.5t63.5 25.5q41 0 68 -25t27 -64q0 -38 -27 -63.5t-68 -25.5q-37 0 -63.5 25.5t-26.5 63.5z" />
<glyph unicode="&#xfd;" horiz-adv-x="1026" d="M78 -328l24 105q39 -9 80 -9q58 0 101 23t69 57.5t53 91.5l35 71l-200 1032h136l151 -890h9l453 890h137l-556 -1044l-46 -89q-37 -71 -67.5 -113.5t-72 -76t-94.5 -47t-127 -13.5q-46 0 -85 12zM611 1218l280 339h144l-322 -339h-102z" />
<glyph unicode="&#xfe;" horiz-adv-x="1177" d="M122 -360l317 1796h121l-97 -561h9q16 34 41.5 64.5t62.5 59t91 45t118 16.5q164 0 264.5 -105t100.5 -290q0 -60 -9 -114l-33 -190q-29 -169 -142.5 -273.5t-275.5 -104.5q-134 0 -222 69.5t-114 166.5h-5l-100 -579h-127zM391 408q1 -100 44.5 -172t107.5 -104.5 t139 -32.5q117 0 202.5 83.5t109.5 220.5l27 160q6 35 6 82q0 145 -74.5 226t-199.5 81q-131 0 -218 -87t-110 -223l-29 -176q-8 -37 -5 -58z" />
<glyph unicode="&#xff;" horiz-adv-x="1026" d="M78 -328l24 105q39 -9 80 -9q58 0 101 23t69 57.5t53 91.5l35 71l-200 1032h136l151 -890h9l453 890h137l-556 -1044l-46 -89q-37 -71 -67.5 -113.5t-72 -76t-94.5 -47t-127 -13.5q-46 0 -85 12zM473 1304q0 39 26.5 64t65.5 25q40 0 66.5 -25t26.5 -64 q0 -38 -26.5 -63.5t-66.5 -25.5q-39 0 -65.5 25.5t-26.5 63.5zM805 1304q0 38 26.5 63.5t63.5 25.5q41 0 68 -25t27 -64q0 -38 -27 -63.5t-68 -25.5q-37 0 -63.5 25.5t-26.5 63.5z" />
<glyph unicode="&#x152;" horiz-adv-x="2026" d="M241 482q0 93 15 176l40 225q43 240 192.5 375t367.5 135q160 0 280 -74.5t167 -207.5h1l44 252h788l-20 -117h-661l-86 -491h625l-20 -116h-625l-93 -523h661l-20 -116h-789l28 154h-1q-66 -94 -169.5 -139t-226.5 -45q-107 0 -197 33t-157.5 95.5t-105.5 161t-38 222.5 zM372 494q0 -188 106.5 -295.5t285.5 -107.5q177 0 288 107t144 304l41 242q10 54 10 119q0 179 -107 294.5t-287 115.5q-166 0 -278.5 -106.5t-148.5 -302.5l-40 -221q-14 -75 -14 -149z" />
<glyph unicode="&#x153;" horiz-adv-x="1830" d="M206 388q0 62 11 131l25 143q32 189 153.5 293.5t290.5 104.5q128 0 228.5 -61.5t140.5 -184.5q117 246 383 246q103 0 180.5 -37.5t120 -99t60.5 -135t9 -151.5q0 -6 -9.5 -64t-13.5 -77h-701l-4 -25q-7 -41 -7 -80q0 -131 69 -213t210 -82q105 0 175.5 45.5t86.5 106.5 h127q-18 -102 -126 -183.5t-268 -81.5q-131 0 -224 61t-131 179q-51 -117 -151.5 -178.5t-231.5 -61.5q-176 0 -289.5 107.5t-113.5 297.5zM330 404q0 -139 79 -224t212 -85q129 0 213 83.5t110 237.5l23 133q7 41 7 93q0 138 -78.5 222t-211.5 84q-122 0 -207 -76.5 t-113 -234.5l-23 -126q-11 -61 -11 -107zM1105 599h577q5 20 5 42q17 133 -49.5 222t-202.5 89q-119 0 -203 -74.5t-113 -211.5q-1 -3 -7.5 -33.5t-6.5 -33.5z" />
<glyph unicode="&#x178;" horiz-adv-x="1124" d="M266 1364h138l274 -650h8l492 650h154l-600 -766l-104 -598h-129l105 597zM580 1582q0 36 25 60t62 24q36 0 61 -24t25 -60t-25 -59.5t-61 -23.5q-37 0 -62 23.5t-25 59.5zM922 1582q0 36 24.5 60t59.5 24q38 0 63.5 -23.5t25.5 -60.5q0 -36 -25.5 -59.5t-63.5 -23.5 q-35 0 -59.5 23.5t-24.5 59.5z" />
<glyph unicode="&#x2c6;" horiz-adv-x="938" d="M389 1198l300 339h98l184 -339h-116l-126 252h-6l-213 -252h-121z" />
<glyph unicode="&#x2dc;" horiz-adv-x="938" d="M370 1235q11 110 63.5 170.5t135.5 60.5q32 0 58.5 -9.5t49 -30.5t34 -35.5t31.5 -42.5q16 -23 27 -35.5t28 -22.5t36 -10q39 0 66 38.5t38 95.5h100q-7 -96 -66 -165.5t-144 -69.5q-51 0 -86 25t-68 71q-2 3 -9.5 14t-10 15t-9.5 13.5t-11 13t-10.5 10.5t-12 10.5t-13 7 t-15.5 5t-16 1.5q-72 0 -95 -130h-101z" />
<glyph unicode="&#x2000;" horiz-adv-x="856" />
<glyph unicode="&#x2001;" horiz-adv-x="1712" />
<glyph unicode="&#x2002;" horiz-adv-x="856" />
<glyph unicode="&#x2003;" horiz-adv-x="1712" />
<glyph unicode="&#x2004;" horiz-adv-x="570" />
<glyph unicode="&#x2005;" horiz-adv-x="428" />
<glyph unicode="&#x2006;" horiz-adv-x="285" />
<glyph unicode="&#x2007;" horiz-adv-x="285" />
<glyph unicode="&#x2008;" horiz-adv-x="214" />
<glyph unicode="&#x2009;" horiz-adv-x="342" />
<glyph unicode="&#x200a;" horiz-adv-x="95" />
<glyph unicode="&#x2010;" horiz-adv-x="874" d="M211 506l19 113h633l-20 -113h-632z" />
<glyph unicode="&#x2011;" horiz-adv-x="874" d="M211 506l19 113h633l-20 -113h-632z" />
<glyph unicode="&#x2012;" horiz-adv-x="874" d="M211 506l19 113h633l-20 -113h-632z" />
<glyph unicode="&#x2013;" horiz-adv-x="1178" d="M89 507l21 113h1177l-20 -113h-1178z" />
<glyph unicode="&#x2014;" horiz-adv-x="2048" d="M89 506l21 113h2048l-21 -113h-2048z" />
<glyph unicode="&#x2018;" horiz-adv-x="594" d="M322 867l235 496h108l-189 -496h-154z" />
<glyph unicode="&#x2019;" horiz-adv-x="591" d="M322 867l185 496h154l-232 -496h-107z" />
<glyph unicode="&#x201a;" horiz-adv-x="592" d="M100 -391l186 489h154l-234 -489h-106z" />
<glyph unicode="&#x201c;" horiz-adv-x="914" d="M322 866l193 497h114l-160 -497h-147zM683 866l191 497h111l-155 -497h-147z" />
<glyph unicode="&#x201d;" horiz-adv-x="917" d="M322 866l155 497h147l-191 -497h-111zM682 866l159 497h147l-192 -497h-114z" />
<glyph unicode="&#x201e;" horiz-adv-x="917" d="M100 -391l155 497h147l-191 -497h-111zM460 -391l159 497h147l-192 -497h-114z" />
<glyph unicode="&#x2022;" horiz-adv-x="983" d="M337 596q0 107 75.5 183t182.5 76t183 -76t76 -183q0 -106 -76.5 -182t-182.5 -76t-182 76t-76 182z" />
<glyph unicode="&#x2026;" horiz-adv-x="1447" d="M162 96q0 49 33 82.5t80 33.5q49 0 82.5 -33t33.5 -83q0 -47 -33.5 -79.5t-82.5 -32.5q-47 0 -80 32.5t-33 79.5zM630 96q0 49 33 82.5t79 33.5q50 0 83.5 -33.5t33.5 -82.5q0 -47 -34 -79.5t-83 -32.5q-46 0 -79 32.5t-33 79.5zM1097 96q0 49 33 82.5t80 33.5 q50 0 83 -33t33 -83q0 -47 -33.5 -79.5t-82.5 -32.5q-47 0 -80 32.5t-33 79.5z" />
<glyph unicode="&#x202f;" horiz-adv-x="342" />
<glyph unicode="&#x2039;" horiz-adv-x="834" d="M255 557l1 8l425 404h152l-428 -411l-1 -6l268 -397h-143z" />
<glyph unicode="&#x203a;" horiz-adv-x="831" d="M199 155l411 410l1 6l-269 398h143l281 -404l-1 -8l-415 -402h-151z" />
<glyph unicode="&#x205f;" horiz-adv-x="428" />
<glyph unicode="&#x20ac;" horiz-adv-x="1107" d="M100 495l17 104h154q8 95 26 190h-146l18 104h146q107 500 491 500q108 0 192 -35.5t132 -94t72.5 -127t24.5 -142.5q0 -31 -2 -39h-125q1 8 1 34q-3 39 -11.5 74.5t-30 75.5t-53 68.5t-84.5 47.5t-121 19q-125 0 -218.5 -92t-138.5 -289h379l-18 -104h-379 q-16 -87 -25 -190h370l-17 -104h-356q-1 -12 -1 -30q1 -193 74 -284t232 -91q256 0 307 259h128q-3 -26 -6 -38q-14 -67 -45 -125.5t-81.5 -108t-128 -78t-174.5 -28.5q-205 0 -321 121.5t-116 370.5q0 21 1 32h-167z" />
<glyph unicode="&#x2122;" horiz-adv-x="1739" d="M340 1279l14 85h601l-14 -85h-253l-107 -605h-98l107 605h-250zM976 674l122 690h97l173 -513h6l348 513h100l-122 -690h-87l90 509h-7l-316 -457h-62l-157 458h-6l-90 -510h-89z" />
<glyph unicode="&#x25fc;" horiz-adv-x="1045" d="M0 0v1045h1045v-1045h-1045z" />
<glyph unicode="&#xfb01;" horiz-adv-x="1308" d="M218 928l19 105h178l15 88q25 149 106.5 226t232.5 77q68 0 119 -12l-19 -104q-34 9 -99 9q-96 0 -145 -45.5t-67 -142.5l-17 -96h258l-19 -105h-258l-163 -928h-127l164 928h-178zM977 0l184 1043h127l-184 -1043h-127zM1163 1358q0 43 28.5 72t70.5 29q44 0 73 -29 t29 -72q0 -42 -29.5 -71t-72.5 -29q-41 0 -70 29t-29 71z" />
<glyph unicode="&#xfb02;" horiz-adv-x="1316" d="M218 928l19 105h178l15 88q25 149 106.5 226t232.5 77q68 0 119 -12l-19 -104q-34 9 -99 9q-96 0 -145 -45.5t-67 -142.5l-17 -96h258l-19 -105h-258l-163 -928h-127l164 928h-178zM985 0l249 1417h128l-250 -1417h-127z" />
</font>
</defs>
</svg>
