<?xml version="1.0" standalone="no"?>
<!DOCTYPE svg PUBLIC "-//W3C//DTD SVG 1.1//EN" "http://www.w3.org/Graphics/SVG/1.1/DTD/svg11.dtd" >
<svg xmlns="http://www.w3.org/2000/svg">
<metadata></metadata>
<defs>
<font id="san_francisco_textlight" horiz-adv-x="1113" >
<font-face units-per-em="2048" ascent="1638" descent="-410" />
<missing-glyph horiz-adv-x="465" />
<glyph horiz-adv-x="0" />
<glyph unicode="&#xd;" horiz-adv-x="0" />
<glyph unicode=" "  horiz-adv-x="465" />
<glyph unicode="&#x09;" horiz-adv-x="465" />
<glyph unicode="&#xa0;" horiz-adv-x="465" />
<glyph unicode="!" horiz-adv-x="550" d="M160 96q0 49 33 82.5t80 33.5q49 0 82.5 -33t33.5 -83q0 -47 -33.5 -79.5t-82.5 -32.5q-47 0 -80 32.5t-33 79.5zM206 1363h141l-15 -911h-111z" />
<glyph unicode="&#x22;" horiz-adv-x="758" d="M146 1363h144l-22 -465h-100zM468 1363h144l-22 -465h-100z" />
<glyph unicode="#" horiz-adv-x="1238" d="M90 404l22 104h218l72 358h-206l21 103h207l80 396h106l-81 -396h321l80 396h105l-81 -396h231l-21 -103h-232l-72 -358h218l-21 -104h-219l-82 -404h-105l82 404h-320l-83 -404h-105l82 404h-217zM435 508h320l73 358h-321z" />
<glyph unicode="$" d="M83 361h125q6 -101 83.5 -171.5t216.5 -82.5v548l-80 22q-309 81 -309 342q0 158 107 251.5t282 107.5v132h106v-132q170 -13 278 -107t112 -241h-123q-2 91 -72.5 157.5t-194.5 78.5v-515l67 -17q175 -46 260 -130.5t85 -232.5q0 -169 -113.5 -265.5t-298.5 -109.5v-131 h-106v130q-104 6 -187 39t-133.5 84t-77 113t-27.5 130zM242 1029q0 -161 206 -230q25 -10 60 -19v486q-121 -11 -193.5 -73t-72.5 -164zM614 105q132 11 210 78.5t78 178.5q0 98 -59.5 158t-201.5 102q-4 1 -13.5 3.5t-13.5 3.5v-524z" />
<glyph unicode="%" horiz-adv-x="1463" d="M70 1025v30q0 141 72.5 233t188.5 92t188.5 -92t72.5 -235v-30q0 -142 -72.5 -234.5t-189.5 -92.5t-188.5 92.5t-71.5 236.5zM153 0l517 681l517 682h118l-517 -682l-517 -681h-118zM169 1032q0 -110 44 -177t118 -67q73 0 117.5 66.5t44.5 175.5v17q0 109 -43.5 175.5 t-117.5 66.5q-76 0 -119.5 -67t-43.5 -173v-17zM871 320v30q0 141 72.5 233t188.5 92t188.5 -92t72.5 -235v-30q0 -143 -72.5 -235t-189.5 -92t-188.5 92.5t-71.5 236.5zM970 327q0 -110 44 -177t118 -67q73 0 117.5 66.5t44.5 175.5v17q0 109 -43.5 175.5t-117.5 66.5 q-76 0 -119.5 -67t-43.5 -173v-17z" />
<glyph unicode="&#x26;" horiz-adv-x="1331" d="M108 353q0 229 272 373q11 6 61 31q-91 94 -136 167t-45 158q0 127 94.5 210t237.5 83q144 0 237 -85t93 -213q0 -111 -76 -191t-225 -157l369 -400q76 133 79 391q1 8 1 50h121q0 -5 -0.5 -26t-0.5 -25q-3 -308 -115 -475l229 -244h-166l-140 152q-95 -92 -213 -135 t-232 -43q-122 0 -222 43.5t-161.5 131t-61.5 204.5zM236 359q0 -127 94 -201t231 -74q96 0 194.5 38t165.5 112l-407 444q-3 -2 -29 -15.5t-32 -16.5q-106 -57 -161.5 -125.5t-55.5 -161.5zM385 1075q0 -62 36.5 -121t126.5 -150q130 64 190 125.5t60 144.5q0 86 -57.5 141 t-148.5 55q-90 0 -148.5 -55t-58.5 -140z" />
<glyph unicode="'" horiz-adv-x="436" d="M146 1363h144l-22 -465h-100z" />
<glyph unicode="(" horiz-adv-x="631" d="M163 566q0 126 17.5 238.5t41.5 190t62.5 153.5t67.5 118.5t71 96.5h102q-35 -42 -71 -105t-76.5 -161.5t-65.5 -237.5t-25 -292q0 -124 18 -241t40 -196.5t60.5 -166t60 -126t57.5 -99.5h-108q-43 54 -82 122.5t-80 170.5t-65.5 241t-24.5 294z" />
<glyph unicode=")" horiz-adv-x="631" d="M106 1363h100q42 -53 71.5 -96t68.5 -119t63 -153.5t41.5 -190t17.5 -238.5q0 -155 -25 -294t-66.5 -241t-80.5 -170.5t-82 -122.5h-106q36 61 57 99.5t59.5 125.5t60 166t39.5 196.5t18 241.5q0 153 -25 292t-65 237.5t-75.5 161.5t-70.5 105z" />
<glyph unicode="*" horiz-adv-x="984" d="M119 837l299 158l-299 157l52 90l285 -181l-13 338h104l-14 -338l286 181l52 -90l-300 -157l300 -158l-52 -90l-286 181l14 -338h-104l13 338l-285 -181z" />
<glyph unicode="+" d="M83 492v106h421v442h104v-442h423v-106h-423v-463h-104v463h-421z" />
<glyph unicode="," horiz-adv-x="462" d="M64 -361l117 504h150l-167 -504h-100z" />
<glyph unicode="-" horiz-adv-x="826" d="M98 504v113h630v-113h-630z" />
<glyph unicode="." horiz-adv-x="550" d="M161 96q0 49 32.5 82.5t79.5 33.5q50 0 83.5 -33.5t33.5 -82.5q0 -47 -34 -79.5t-83 -32.5q-47 0 -79.5 32.5t-32.5 79.5z" />
<glyph unicode="/" horiz-adv-x="715" d="M53 -311l502 1747h110l-502 -1747h-110z" />
<glyph unicode="0" horiz-adv-x="1217" d="M139 650v61q0 314 127 498t344 184t343 -184t126 -498v-61q0 -314 -126.5 -497t-343.5 -183t-343.5 183t-126.5 497zM266 650q0 -263 94 -415t249 -152t249 152t94 415v61q0 263 -94.5 415.5t-248.5 152.5t-248.5 -152.5t-94.5 -415.5v-61z" />
<glyph unicode="1" horiz-adv-x="892" d="M151 989v135l332 238h126v-1362h-126v1218h-7z" />
<glyph unicode="2" horiz-adv-x="1119" d="M146 1004v5q0 74 27 142.5t78 122.5t131.5 86.5t179.5 32.5q187 0 298 -104.5t111 -262.5q0 -60 -16 -114.5t-53 -111.5t-65.5 -93t-85.5 -102l-419 -482v-9h669v-114h-851v86l526 606q38 44 60 72.5t50 72.5t41 90t13 95q0 113 -77 185.5t-204 72.5q-132 0 -209.5 -79.5 t-77.5 -191.5v-5h-126z" />
<glyph unicode="3" horiz-adv-x="1137" d="M109 306h123q7 -94 95 -158.5t221 -65.5q149 -1 239.5 80t89.5 206q-1 126 -92.5 202t-236.5 76h-144v114h133q130 0 210.5 76t79.5 191q0 111 -78 182t-206 71q-123 0 -199 -64.5t-81 -150.5h-124q2 59 28 116t74.5 104.5t127 77t174.5 30.5q185 1 298 -97.5t117 -249.5 q1 -57 -15.5 -108.5t-43.5 -89t-62.5 -67t-71.5 -46t-71 -21.5v-8q52 -5 104 -27.5t99.5 -61t78 -103.5t31.5 -144q2 -174 -127.5 -287.5t-336.5 -113.5q-191 0 -309.5 96.5t-124.5 240.5z" />
<glyph unicode="4" horiz-adv-x="1161" d="M100 306v115q54 96 163 269t258 403.5t174 269.5h190v-943h188v-114h-188v-306h-122v306h-663zM233 420h530v828h-7q-97 -143 -274.5 -420t-248.5 -400v-8z" />
<glyph unicode="5" horiz-adv-x="1161" d="M148 305h125q16 -101 104 -161.5t212 -60.5q135 0 231.5 96t96.5 252q0 145 -94 236t-234 91q-109 0 -185 -51t-111 -116h-111l60 773h737v-114h-626l-42 -513h8q29 47 105.5 90.5t187.5 43.5q187 0 311 -120t124 -317q0 -204 -129.5 -334t-337.5 -130q-185 0 -304 97.5 t-128 237.5z" />
<glyph unicode="6" horiz-adv-x="1189" d="M139 618q0 361 128 564.5t368 203.5q170 0 278.5 -89t120.5 -199h-129q-16 66 -87 120.5t-188 54.5q-177 0 -271 -170t-96 -461v-14h6q30 100 127 170.5t241 70.5q84 0 161 -30t136.5 -84.5t95 -138.5t35.5 -184q0 -211 -127.5 -336t-326.5 -125q-127 0 -230 61t-161 180 q-81 152 -81 406zM287 426q0 -152 94 -247.5t232 -95.5q141 0 233 91t92 251q0 154 -94 242.5t-229 88.5q-142 0 -235 -93.5t-93 -236.5z" />
<glyph unicode="7" horiz-adv-x="1061" d="M114 1249v114h839v-120l-570 -1243h-135l575 1240v9h-709z" />
<glyph unicode="8" horiz-adv-x="1187" d="M126 367q0 78 28 143t72.5 106t91 66t93.5 35v8q-39 11 -76.5 34t-74 59.5t-59 92.5t-22.5 122q0 157 117.5 258t297.5 101q181 0 298 -101t117 -258q0 -67 -23 -123.5t-60 -93t-75 -59t-75 -32.5v-8q37 -8 74 -25t75.5 -46.5t68 -67.5t48.5 -92.5t19 -116.5 q0 -176 -133 -287.5t-337 -111.5q-203 0 -334 111t-131 286zM252 373q0 -129 97 -210.5t245 -81.5t245 81.5t97 210.5q0 126 -96.5 207t-245.5 81t-245.5 -81t-96.5 -207zM304 1025q0 -112 82.5 -184t207.5 -72q126 0 208 71.5t82 184.5q0 114 -81.5 184.5t-208.5 70.5 q-126 0 -208 -70.5t-82 -184.5z" />
<glyph unicode="9" horiz-adv-x="1188" d="M126 941q0 207 129 330.5t327 123.5q75 0 139.5 -18t126.5 -65t105 -119.5t69.5 -189t26.5 -267.5q0 -383 -123 -572t-376 -189q-164 0 -269.5 80t-118.5 199h129q15 -67 85.5 -117t177.5 -50q191 0 284 167.5t88 468.5h-9q-37 -102 -127.5 -168.5t-231.5 -66.5 q-181 0 -306.5 123t-125.5 330zM254 939q0 -160 94 -248.5t229 -88.5q132 0 226.5 86.5t94.5 235.5q0 164 -90.5 261t-234.5 97q-136 0 -227.5 -94.5t-91.5 -248.5z" />
<glyph unicode=":" horiz-adv-x="567" d="M169 104q0 49 33 82.5t80 33.5q50 0 83 -33t33 -83q0 -47 -33.5 -80t-82.5 -33q-47 0 -80 33t-33 80zM169 805q0 49 33 82t80 33q50 0 83 -33t33 -82q0 -48 -33.5 -80.5t-82.5 -32.5q-47 0 -80 32.5t-33 80.5z" />
<glyph unicode=";" horiz-adv-x="571" d="M58 -383l130 535h169l-187 -535h-112zM164 808q0 49 32.5 82.5t79.5 33.5q50 0 83 -33t33 -83q0 -47 -33.5 -80t-82.5 -33q-47 0 -79.5 33t-32.5 80z" />
<glyph unicode="&#x3c;" d="M144 451v113l818 524v-136l-692 -435v-9l692 -407v-136z" />
<glyph unicode="=" d="M146 314v104h820v-104h-820zM146 671v106h820v-106h-820z" />
<glyph unicode="&#x3e;" d="M154 -35v136l693 407v9l-693 435v136l818 -524v-113z" />
<glyph unicode="?" horiz-adv-x="966" d="M92 1030q1 92 34 163.5t88.5 115t125.5 65.5t150 22q77 0 145 -21t122 -61t85.5 -104t31.5 -144q0 -46 -11 -87.5t-27.5 -72.5t-45 -63t-52.5 -54t-61 -51q-95 -74 -126 -123t-31 -128v-73h-126v94q0 91 46.5 158t143.5 144q87 69 123.5 120.5t36.5 128.5 q0 111 -74.5 168.5t-185.5 57.5q-133 0 -200.5 -74.5t-70.5 -180.5h-121zM351 96q0 49 32.5 82.5t79.5 33.5q49 0 82.5 -33t33.5 -83q0 -47 -33.5 -79.5t-82.5 -32.5q-47 0 -79.5 32.5t-32.5 79.5z" />
<glyph unicode="@" horiz-adv-x="1702" d="M124 484v55q0 173 56 317t155.5 242t237 152t297.5 54h8q113 0 213 -25.5t177 -71t139 -108.5t102 -137t61 -157t21 -169v-52q0 -201 -93 -318t-233 -117q-96 0 -154.5 42.5t-68.5 102.5h-8q-13 -49 -71.5 -97t-147.5 -48q-119 0 -188.5 85.5t-69.5 234.5v91 q0 142 69.5 228.5t194.5 86.5q86 0 137 -43t65 -91h7v119h107v-480q0 -70 41 -104t101 -34q88 0 147.5 88.5t59.5 264.5v37q0 115 -41 218t-116 183t-192 127t-259 47h-8q-136 0 -253 -47t-201.5 -132.5t-133 -213t-48.5 -281.5v-43q0 -126 32.5 -232.5t90 -182.5 t137.5 -129t174 -79t200 -26h8q196 0 318 49v-100q-107 -46 -318 -46h-8q-125 0 -236.5 29.5t-204.5 90.5t-160.5 148t-105 207.5t-37.5 264.5zM670 482q0 -118 49 -176t129 -58q79 0 129.5 54t50.5 166v96q0 97 -49.5 158t-131.5 61q-79 0 -128 -59.5t-49 -168.5v-73z" />
<glyph unicode="A" horiz-adv-x="1223" d="M59 0l489 1363h127l489 -1363h-137l-150 436h-537l-150 -436h-131zM376 541h465l-229 665h-6z" />
<glyph unicode="B" horiz-adv-x="1262" d="M201 0v1363h478q175 0 279 -89t104 -246q0 -125 -63.5 -202t-159.5 -105v-6q138 -18 219.5 -106.5t81.5 -232.5q0 -177 -125 -276.5t-340 -99.5h-474zM329 116h291q186 0 287.5 59t101.5 198q0 133 -88 201.5t-232 68.5h-360v-527zM329 759h265q338 0 338 249 q0 118 -73.5 178.5t-198.5 60.5h-331v-488z" />
<glyph unicode="C" horiz-adv-x="1293" d="M147 569v219q0 277 138 441t383 164q117 0 212.5 -39.5t154 -104t89.5 -141t31 -155.5v-1h-126q0 58 -24 115t-68 104t-114 76.5t-155 29.5q-185 0 -289.5 -131t-104.5 -357v-222q0 -228 104 -354t296 -126q166 0 262.5 89t96.5 218h126v-1q0 -75 -31 -148.5t-89 -135.5 t-154.5 -100.5t-215.5 -38.5q-250 0 -386 159t-136 440z" />
<glyph unicode="D" horiz-adv-x="1338" d="M201 0v1363h403q160 0 277.5 -49.5t188 -141.5t103.5 -214t33 -277q0 -122 -19.5 -223t-64.5 -187t-113.5 -145.5t-171 -92.5t-233.5 -33h-403zM329 116h271q475 0 475 565q0 271 -115.5 418.5t-359.5 147.5h-271v-1131z" />
<glyph unicode="E" horiz-adv-x="1135" d="M201 0v1363h796v-117h-668v-491h632v-115h-632v-524h668v-116h-796z" />
<glyph unicode="F" horiz-adv-x="1065" d="M201 0v1363h784v-117h-656v-513h602v-116h-602v-617h-128z" />
<glyph unicode="G" horiz-adv-x="1315" d="M147 584v205q0 281 144 442.5t388 161.5q110 0 201.5 -35.5t151.5 -95.5t94 -135.5t38 -157.5h-125q-14 136 -115.5 222t-248.5 86q-178 0 -289.5 -125t-111.5 -363v-205q0 -232 102 -364.5t296 -132.5q166 0 269.5 89t103.5 237v158h-382v117h506v-275 q0 -63 -17.5 -124.5t-56.5 -119.5t-95 -102t-140.5 -70.5t-185.5 -26.5q-259 0 -393 165t-134 449z" />
<glyph unicode="H" horiz-adv-x="1398" d="M201 0v1363h128v-595h740v595h127v-1363h-127v652h-740v-652h-128z" />
<glyph unicode="I" horiz-adv-x="543" d="M208 0v1363h127v-1363h-127z" />
<glyph unicode="J" horiz-adv-x="981" d="M54 299h125q3 -88 66 -147.5t167 -59.5q114 0 182.5 67.5t68.5 205.5v998h127v-985q0 -199 -102.5 -301t-275.5 -102q-167 0 -262.5 93.5t-95.5 230.5z" />
<glyph unicode="K" horiz-adv-x="1197" d="M201 0v1363h128v-693h5l637 693h155l-531 -590l561 -773h-165l-491 685l-171 -184v-501h-128z" />
<glyph unicode="L" horiz-adv-x="1045" d="M201 0v1363h128v-1247h655v-116h-783z" />
<glyph unicode="M" horiz-adv-x="1626" d="M205 0v1363h123l483 -1122h5l481 1122h124v-1363h-117v1084h-7l-426 -979h-116l-427 979h-7v-1084h-116z" />
<glyph unicode="N" horiz-adv-x="1398" d="M201 0v1363h129l732 -1143h7v1143h127v-1363h-128l-733 1143h-6v-1143h-128z" />
<glyph unicode="O" horiz-adv-x="1357" d="M147 566v221q0 281 143.5 443.5t388.5 162.5q246 0 388.5 -162.5t142.5 -444.5v-220q0 -280 -143.5 -438t-390.5 -158q-246 0 -387.5 158t-141.5 438zM274 564q0 -228 110.5 -352.5t293.5 -124.5q184 0 294.5 124.5t110.5 352.5v225q0 229 -111.5 358.5t-293.5 129.5 t-293 -129.5t-111 -358.5v-225z" />
<glyph unicode="P" horiz-adv-x="1184" d="M201 0v1363h469q195 0 311 -112.5t116 -299.5q0 -188 -115.5 -299.5t-311.5 -111.5h-341v-540h-128zM329 655h260q189 0 283 67t94 229q0 140 -79 218t-222 78h-336v-592z" />
<glyph unicode="Q" horiz-adv-x="1358" d="M147 575v217q0 281 142 441t389 160q246 0 389 -160.5t143 -440.5v-217q0 -321 -184 -480l186 -257h-146l-139 190q-110 -54 -249 -54q-247 0 -389 160t-142 441zM273 574q0 -229 111 -356t294 -127q97 0 175 36l-163 221h151l110 -150q132 127 132 376v219 q0 228 -111.5 356t-293.5 128t-293.5 -128t-111.5 -356v-219z" />
<glyph unicode="R" horiz-adv-x="1247" d="M201 0v1363h470q203 0 313 -112t110 -282q0 -79 -22 -145t-61 -110.5t-85 -74t-101 -46.5l293 -593h-147l-274 567h-368v-567h-128zM329 682h320q151 0 232.5 73.5t81.5 205.5q0 137 -82.5 212t-226.5 75h-325v-566z" />
<glyph unicode="S" horiz-adv-x="1194" d="M102 357h129q4 -51 27.5 -98t66 -86t112 -62.5t157.5 -23.5q156 0 250.5 73.5t94.5 194.5q0 100 -63.5 157.5t-199.5 94.5l-218 57q-67 18 -121 46t-98.5 69.5t-69 101.5t-24.5 134q0 117 62.5 205t164.5 132t227 44q189 0 318.5 -98.5t133.5 -270.5h-129 q-8 107 -91 179.5t-235 72.5q-145 0 -233 -68.5t-88 -187.5q0 -177 222 -235l212 -58q88 -24 150.5 -52.5t111.5 -71t73.5 -103t24.5 -139.5q0 -185 -137.5 -289.5t-352.5 -104.5q-101 0 -183.5 24.5t-135.5 63.5t-89 91t-52 103.5t-17 104.5z" />
<glyph unicode="T" horiz-adv-x="1082" d="M43 1247v116h996v-116h-434v-1247h-128v1247h-434z" />
<glyph unicode="U" horiz-adv-x="1369" d="M183 475v888h127v-891q0 -176 100 -280.5t274 -104.5q175 0 275 104t100 281v891h127v-891q0 -227 -137 -364.5t-365 -137.5q-227 0 -364 139t-137 366z" />
<glyph unicode="V" horiz-adv-x="1227" d="M51 1363h144l414 -1209h8l415 1209h144l-500 -1363h-129z" />
<glyph unicode="W" horiz-adv-x="1715" d="M48 1363h149l282 -1165h6l304 1165h137l303 -1165h7l282 1165h149l-372 -1363h-119l-315 1154h-8l-315 -1154h-119z" />
<glyph unicode="X" horiz-adv-x="1167" d="M49 0l456 685l-452 678h154l380 -575h7l377 575h148l-461 -687l453 -676h-155l-375 574h-8l-378 -574h-146z" />
<glyph unicode="Y" horiz-adv-x="1120" d="M35 1363h147l373 -634h8l375 634h147l-462 -760v-603h-126v602z" />
<glyph unicode="Z" horiz-adv-x="1195" d="M113 0v94l786 1145v9h-759v115h918v-93l-783 -1146v-8h794v-116h-956z" />
<glyph unicode="[" horiz-adv-x="652" d="M163 -226v1589h386v-96h-266v-1397h279v-96h-399z" />
<glyph unicode="\" horiz-adv-x="715" d="M50 1436h111l502 -1747h-111z" />
<glyph unicode="]" horiz-adv-x="652" d="M90 -130h280v1397h-267v96h386v-1589h-399v96z" />
<glyph unicode="^" horiz-adv-x="792" d="M89 795l245 570h125l245 -570h-110l-196 460h-4l-196 -460h-109z" />
<glyph unicode="_" horiz-adv-x="894" d="M-1 -111h896v-103h-896v103z" />
<glyph unicode="`" horiz-adv-x="938" d="M232 1564h131l241 -337h-100z" />
<glyph unicode="a" horiz-adv-x="1088" d="M124 299q0 137 93.5 218.5t267.5 81.5h295v123q0 113 -66.5 169t-184.5 56q-109 0 -166.5 -40t-73.5 -104h-123q11 120 107.5 188.5t261.5 68.5q167 0 269.5 -82t102.5 -250v-728h-122v152h-6q-39 -69 -117.5 -119t-197.5 -50q-152 0 -246 86.5t-94 229.5zM255 302 q0 -98 67.5 -153.5t169.5 -55.5q122 0 205 74.5t83 187.5v137h-293q-118 0 -175 -51.5t-57 -138.5z" />
<glyph unicode="b" horiz-adv-x="1178" d="M188 0v1436h125v-574h7q9 32 32 64t60.5 63.5t98 51t132.5 19.5q180 0 290 -118.5t110 -321.5v-196q0 -207 -113 -324t-292 -117q-130 0 -211.5 56.5t-111.5 132.5h-7v-172h-120zM313 422q0 -140 86 -233t224 -93q130 0 211.5 90.5t81.5 266.5v136q0 171 -80.5 265.5 t-215.5 94.5q-142 0 -224.5 -95.5t-82.5 -245.5v-186z" />
<glyph unicode="c" horiz-adv-x="1070" d="M136 435v178q0 207 114.5 327t306.5 120q92 0 167 -27.5t121.5 -72.5t72.5 -99t29 -110h-125q-6 34 -22.5 66t-46 63t-80 50t-115.5 19q-140 0 -218.5 -92t-78.5 -253v-168q0 -158 80 -246.5t220 -88.5q123 0 186 49.5t80 127.5h125q-4 -55 -28.5 -105.5t-70 -94 t-122 -69.5t-173.5 -26q-195 0 -308.5 120t-113.5 332z" />
<glyph unicode="d" horiz-adv-x="1180" d="M135 415v213q0 199 113 316t292 117q68 0 124.5 -17.5t94.5 -46t62 -60t37 -65.5h6v564h126v-1436h-120v182h-7q-9 -31 -32.5 -64t-62 -64t-99.5 -51t-133 -20q-179 0 -290 117.5t-111 314.5zM261 447q0 -166 81.5 -259t216.5 -93q140 0 222.5 94.5t82.5 243.5v191 q0 139 -86.5 231.5t-223.5 92.5q-131 0 -212 -92t-81 -260v-149z" />
<glyph unicode="e" horiz-adv-x="1103" d="M137 443v151q0 216 115 341t302 125q186 0 301.5 -125t115.5 -341v-102h-708v-55q0 -155 80 -248t223 -93q107 0 175.5 46.5t81.5 107.5h133q-6 -43 -32.5 -87.5t-72 -86t-120.5 -67.5t-165 -26q-202 0 -315.5 123t-113.5 337zM263 592h581v15q0 157 -79 249.5t-211 92.5 t-211.5 -92.5t-79.5 -249.5v-15z" />
<glyph unicode="f" horiz-adv-x="748" d="M83 935v108h180v116q0 147 71.5 214t229.5 67q67 0 112 -8v-106q-45 5 -101 5q-100 0 -143.5 -39t-43.5 -139v-110h264v-108h-264v-935h-125v935h-180z" />
<glyph unicode="g" horiz-adv-x="1151" d="M125 458v168q0 201 118 317.5t292 116.5q122 0 205.5 -59t112.5 -132h6v174h120v-1030q0 -191 -115.5 -292.5t-319.5 -101.5q-94 0 -169 23t-121.5 63t-72 88.5t-30.5 103.5h131q10 -68 80.5 -116.5t186.5 -48.5q147 0 226 74.5t79 204.5v200h-7q-30 -72 -111 -129 t-201 -57q-177 0 -293.5 118t-116.5 315zM250 487q0 -158 87 -254t221 -96q137 0 216.5 96.5t79.5 228.5v156q0 137 -82 234t-215 97q-136 0 -221.5 -95t-85.5 -259v-108z" />
<glyph unicode="h" horiz-adv-x="1190" d="M189 0v1436h126v-590h7q10 35 32.5 69t61 68.5t100.5 55.5t139 21q158 0 256 -92t98 -262v-706h-126v670q0 130 -69.5 205t-191.5 75q-146 0 -226.5 -100t-80.5 -250v-600h-126z" />
<glyph unicode="i" horiz-adv-x="547" d="M173 1361q0 44 29 72.5t71 28.5q44 0 72.5 -28.5t28.5 -72.5q0 -42 -29 -70.5t-72 -28.5q-42 0 -71 28.5t-29 70.5zM211 0v1043h125v-1043h-125z" />
<glyph unicode="j" horiz-adv-x="547" d="M-5 -248q27 -5 67 -5q81 0 115 47.5t34 157.5v1091h125v-1091q0 -163 -64 -238t-188 -75q-55 0 -89 9v104zM173 1361q0 44 29 72.5t71 28.5q44 0 72.5 -28.5t28.5 -72.5q0 -42 -29 -70.5t-72 -28.5q-42 0 -71 28.5t-29 70.5z" />
<glyph unicode="k" horiz-adv-x="1045" d="M189 0v1436h126v-888h5l490 501h150l-435 -450l458 -599h-153l-397 518l-118 -113v-405h-126z" />
<glyph unicode="l" horiz-adv-x="518" d="M196 0v1436h126v-1436h-126z" />
<glyph unicode="m" horiz-adv-x="1751" d="M186 0v1043h126v-171h6q11 32 29 61t50 60t86 49t122 18q119 0 196 -58t102 -148h6q14 39 39 73.5t62.5 65t93.5 49t123 18.5q158 0 250 -85.5t92 -245.5v-729h-126v698q0 118 -64 185t-179 67t-187.5 -79t-72.5 -194v-677h-125v691q0 118 -66.5 188.5t-180.5 70.5 q-116 0 -186 -79t-70 -199v-672h-126z" />
<glyph unicode="n" horiz-adv-x="1181" d="M186 0v1043h126v-197h6q12 39 33.5 72.5t58.5 67.5t97.5 54t137.5 20q163 0 260 -91t97 -262v-707h-127v672q0 130 -67 204t-189 74q-148 0 -227.5 -100t-79.5 -250v-600h-126z" />
<glyph unicode="o" horiz-adv-x="1144" d="M136 439v165q0 210 123 333t313 123t313 -121.5t123 -334.5v-165q0 -214 -122.5 -335t-313.5 -121q-193 0 -314.5 120t-121.5 336zM261 453q0 -168 84 -262.5t227 -94.5q142 0 225.5 94.5t83.5 262.5v136q0 166 -85 263t-224 97t-225 -97.5t-86 -262.5v-136z" />
<glyph unicode="p" horiz-adv-x="1176" d="M187 -354v1398h120v-182h6q12 34 36.5 66.5t63.5 63t98 49.5t129 19q180 0 289.5 -118.5t109.5 -321.5v-196q0 -207 -112.5 -324t-291.5 -117q-89 0 -158 31t-103.5 70.5t-54.5 87.5h-7v-526h-125zM312 419q0 -140 85 -231.5t222 -91.5q130 0 212 91t82 268v135 q0 172 -80.5 265.5t-216.5 93.5q-142 0 -223 -94.5t-81 -243.5v-192z" />
<glyph unicode="q" horiz-adv-x="1169" d="M135 421v200q0 201 111.5 320t289.5 119q127 0 209.5 -57.5t115.5 -138.5h7v179h120v-1398h-126v530h-6q-13 -33 -37.5 -64.5t-63 -61.5t-96 -48t-126.5 -18q-181 0 -289.5 119.5t-108.5 318.5zM261 446q0 -165 80.5 -258.5t216.5 -93.5q141 0 222.5 94.5t81.5 243.5v192 q0 140 -85.5 231.5t-221.5 91.5q-132 0 -213 -93.5t-81 -258.5v-149z" />
<glyph unicode="r" horiz-adv-x="760" d="M198 0v1043h126v-177h7q10 33 30.5 64t54.5 61.5t89.5 49t123.5 18.5q26 0 71 -5v-118q-30 6 -85 6q-134 0 -212.5 -78t-78.5 -211v-653h-126z" />
<glyph unicode="s" horiz-adv-x="1018" d="M114 268h124q8 -78 70.5 -128t190.5 -50q127 0 197.5 51.5t70.5 139.5q0 38 -16 67.5t-37.5 47.5t-64 33.5t-73 23.5t-88.5 20q-69 15 -114 28t-94 36t-76.5 51t-46 71.5t-18.5 100.5q0 98 51.5 167.5t133 101t183.5 31.5q169 0 265 -82t96 -200h-120q-4 67 -66 122 t-179 55q-105 0 -172 -48t-67 -135q0 -27 8 -49.5t19.5 -39t33 -30.5t40 -23t50.5 -18.5t54 -14.5t60 -13q57 -12 95.5 -22t84.5 -26t75.5 -36.5t56 -49t39 -67.5t12.5 -88q0 -149 -110.5 -230.5t-286.5 -81.5q-178 0 -279.5 79.5t-101.5 205.5z" />
<glyph unicode="t" horiz-adv-x="741" d="M65 935v108h176v259h126v-259h257v-108h-257v-672q0 -94 39.5 -128t141.5 -34q50 0 92 5v-105q-43 -8 -118 -8q-85 0 -140 15.5t-86 51.5t-43 86t-12 127v662h-176z" />
<glyph unicode="u" horiz-adv-x="1177" d="M177 321v722h127v-693q0 -129 69.5 -193t186.5 -64q134 0 219.5 88.5t85.5 208.5v653h126v-1043h-126v185h-8q-28 -80 -110 -141t-213 -61q-163 0 -260 82.5t-97 255.5z" />
<glyph unicode="v" horiz-adv-x="1001" d="M57 1043h140l296 -903h7l310 903h134l-383 -1043h-127z" />
<glyph unicode="w" horiz-adv-x="1474" d="M60 1043h143l211 -872h7l259 872h121l264 -872h7l215 872h127l-282 -1043h-124l-265 860h-4l-260 -860h-125z" />
<glyph unicode="x" horiz-adv-x="1036" d="M87 0l359 519l-357 524h152l273 -417h6l278 417h145l-357 -511l364 -532h-152l-280 422h-6l-281 -422h-144z" />
<glyph unicode="y" horiz-adv-x="1033" d="M62 1043h140l311 -913h6l309 913h134l-377 -1050l-33 -90q-24 -64 -46.5 -106.5t-58.5 -83t-87 -60.5t-119 -20q-52 0 -99 9v108q32 -7 81 -7q85 0 131.5 42t72.5 125l24 75z" />
<glyph unicode="z" horiz-adv-x="1013" d="M131 932v111h752v-92l-592 -831v-7h595v-113h-752v92l591 832v8h-594z" />
<glyph unicode="{" horiz-adv-x="730" d="M106 514v148q98 0 133 47t35 157v257q0 170 87.5 240.5t262.5 70.5h46v-103h-50q-121 0 -174.5 -51t-53.5 -162v-299q0 -105 -40 -158.5t-123 -61.5v-21q163 -15 163 -219v-346q0 -110 54.5 -162t173.5 -52h50v-103h-46q-174 0 -262 74t-88 246v295q0 110 -34.5 156.5 t-133.5 46.5z" />
<glyph unicode="|" horiz-adv-x="609" d="M252 -309v1745h105v-1745h-105z" />
<glyph unicode="}" horiz-adv-x="730" d="M60 -201h49q120 0 174.5 52t54.5 162v346q0 204 163 219v21q-163 17 -163 220v299q0 111 -53.5 162t-175.5 51h-49v103h45q175 0 263 -70.5t88 -240.5v-257q0 -110 35 -157t133 -47v-148q-99 0 -133.5 -46.5t-34.5 -156.5v-295q0 -172 -88.5 -246t-262.5 -74h-45v103z " />
<glyph unicode="~" horiz-adv-x="1167" d="M119 539q0 130 67 216.5t200 86.5q61 0 113.5 -29t118.5 -91q47 -48 85.5 -75t80.5 -27q72 0 109 55.5t41 136.5h117q0 -58 -15.5 -111t-46.5 -98.5t-86 -72.5t-127 -27q-61 0 -114 29.5t-122 95.5q-34 33 -52 49t-49 32.5t-59 16.5q-70 0 -106 -51t-39 -136h-116z" />
<glyph unicode="&#xa1;" horiz-adv-x="550" d="M160 972q0 48 33.5 80.5t82.5 32.5q47 0 80 -32.5t33 -80.5q0 -49 -33 -82t-80 -33q-50 0 -83 33t-33 82zM202 -294l15 911h111l15 -911h-141z" />
<glyph unicode="&#xa2;" d="M142 590v179q0 191 100 309t270 135v246h106v-245q153 -15 241.5 -106t93.5 -201h-125q-6 34 -22 66t-45.5 63t-80 50t-114.5 19q-141 0 -220 -92t-79 -253v-168q0 -158 81 -247t221 -89q223 0 265 177h124q-7 -108 -93 -193.5t-247 -98.5v-231h-106v232 q-172 17 -271 134.5t-99 313.5z" />
<glyph unicode="&#xa3;" d="M90 650v104h217v315q0 156 100 240t257 84t250.5 -83t98.5 -211h-120q-5 76 -65.5 130t-163.5 54q-115 0 -173 -62t-58 -165v-302h311v-104h-311v-278q0 -102 -17 -165t-60 -88v-10h659v-109h-902v116q42 0 66 3t52 16.5t42 41t24 78t10 124.5v271h-217z" />
<glyph unicode="&#xa4;" d="M92 264l183 184q-69 91 -69 208q0 114 66 204l-180 179l76 76l178 -179q93 71 211 71q115 0 207 -68l176 176l75 -76l-176 -176q68 -92 68 -207q0 -120 -72 -212l180 -180l-75 -75l-181 182q-90 -65 -202 -65q-114 0 -206 68l-183 -185zM300 656q0 -106 75 -181t182 -75 q106 0 181 75t75 181q0 107 -75 182.5t-181 75.5t-181.5 -75.5t-75.5 -182.5z" />
<glyph unicode="&#xa5;" d="M32 1363h147l373 -634h8l375 634h147l-421 -692h239v-96h-280v-165h280v-97h-280v-313h-127v313h-280v97h280v165h-280v96h239z" />
<glyph unicode="&#xa6;" horiz-adv-x="437" d="M167 -309v685h108v-685h-108zM167 783v654h108v-654h-108z" />
<glyph unicode="&#xa7;" horiz-adv-x="1014" d="M120 54h123q8 -89 76.5 -141.5t185.5 -52.5q126 0 193 59.5t67 146.5q0 39 -14.5 69t-36 49.5t-62 36.5t-76 27.5t-95.5 24.5q-65 16 -111 31t-93 39.5t-75.5 54.5t-46.5 74t-18 100q0 92 54 154t125 93v7q-34 18 -59 37t-52 49t-41.5 73t-14.5 95q0 145 104 229t256 84 q158 0 256.5 -85t98.5 -219h-120q-3 79 -68.5 135.5t-169.5 56.5q-106 0 -169 -55.5t-63 -140.5q0 -40 15 -71.5t37 -52t60.5 -38t72.5 -27.5t86 -23q45 -11 75 -19t69.5 -22t65.5 -29t54 -37.5t44 -49t26.5 -62.5t10.5 -79q0 -85 -45.5 -150t-109.5 -104v-7q68 -37 112 -91 t44 -143q0 -148 -108.5 -240.5t-280.5 -92.5q-167 0 -274.5 83.5t-107.5 223.5zM262 585q0 -83 57 -126.5t176 -74.5q33 -7 135 -33q53 23 93.5 81t40.5 128q0 75 -54.5 122.5t-166.5 73.5q-5 1 -33 8.5t-54.5 14t-34.5 8.5q-55 -12 -107 -69.5t-52 -132.5z" />
<glyph unicode="&#xa8;" horiz-adv-x="938" d="M205 1343q0 36 26 61.5t63 25.5t63.5 -25.5t26.5 -61.5q0 -35 -26.5 -60.5t-63.5 -25.5t-63 25.5t-26 60.5zM538 1343q0 36 25.5 61.5t60.5 25.5q39 0 65.5 -25.5t26.5 -61.5q0 -35 -26.5 -60.5t-65.5 -25.5q-34 0 -60 25.5t-26 60.5z" />
<glyph unicode="&#xa9;" horiz-adv-x="1693" d="M137 642v104q0 141 53.5 266.5t147 217t227.5 144.5t287 53q154 0 288 -54t227 -145.5t146.5 -216.5t53.5 -265v-104q0 -150 -52.5 -280t-145 -223.5t-226.5 -147t-291 -53.5q-156 0 -290 53.5t-227 147t-145.5 223.5t-52.5 280zM238 638q0 -129 44.5 -241t124 -192 t194.5 -125.5t251 -45.5t251.5 45.5t195 125.5t124.5 192t45 241v108q0 160 -77 293t-219 212t-320 79q-134 0 -249.5 -46t-195 -124.5t-124.5 -186t-45 -227.5v-108zM544 634v99q0 157 83.5 241.5t230.5 84.5q130 0 205 -69t80 -158h-102q-10 52 -53 93t-130 41 q-215 0 -215 -239v-94q0 -114 56.5 -172t158.5 -58q161 0 189 117h101q-7 -87 -82 -151t-208 -64q-148 0 -231 84.5t-83 244.5z" />
<glyph unicode="&#xaa;" horiz-adv-x="672" d="M110 954q0 78 51.5 121.5t147.5 43.5h151v58q0 104 -122 104q-101 0 -115 -67h-91q5 68 60 108t150 40t153.5 -45t58.5 -139v-384h-90v77h-4q-51 -86 -165 -86q-83 0 -134 45.5t-51 123.5zM203 960q0 -47 34 -72.5t84 -25.5q58 0 98.5 35t40.5 87v64h-140 q-58 1 -87.5 -23t-29.5 -65z" />
<glyph unicode="&#xab;" horiz-adv-x="1278" d="M142 557v8l354 404h150l-348 -403v-6l348 -405h-159zM588 557v8l353 404h150l-348 -403v-6l348 -405h-159z" />
<glyph unicode="&#xac;" d="M106 493v106h897v-476h-113v370h-784z" />
<glyph unicode="&#xad;" horiz-adv-x="826" d="M98 504v113h630v-113h-630z" />
<glyph unicode="&#xae;" horiz-adv-x="1211" d="M128 881v61q0 190 137.5 320t343.5 130q205 0 343 -131t138 -319v-61q0 -201 -135.5 -333t-345.5 -132t-345.5 132t-135.5 333zM208 879q0 -167 112.5 -275.5t288.5 -108.5t288.5 108.5t112.5 275.5v65q0 156 -113.5 263.5t-287.5 107.5q-173 0 -287 -107.5t-114 -263.5 v-65zM440 666v494h208q68 0 110.5 -41.5t42.5 -105.5q0 -53 -27.5 -91.5t-71.5 -50.5q4 -6 26.5 -46.5t52.5 -94t36 -64.5h-91l-103 195h-106v-195h-77zM517 922h96q110 0 110 89q0 42 -27 65t-73 23h-106v-177z" />
<glyph unicode="&#xaf;" horiz-adv-x="938" d="M184 1283v84h565v-84h-565z" />
<glyph unicode="&#xb0;" horiz-adv-x="713" d="M89 1107q0 112 79 190.5t192 78.5q112 0 191 -78.5t79 -190.5q0 -113 -79 -192.5t-191 -79.5q-113 0 -192 79.5t-79 192.5zM190 1107q0 -69 51 -120t119 -51q71 0 121.5 50.5t50.5 120.5t-50.5 120t-121.5 50q-68 0 -119 -50t-51 -120z" />
<glyph unicode="&#xb1;" horiz-adv-x="1128" d="M100 672v106h410v291h104v-291h412v-106h-412v-307h-104v307h-410zM102 137v107h926v-107h-926z" />
<glyph unicode="&#xb2;" horiz-adv-x="690" d="M118 1176v7q0 81 56.5 139t158.5 58q97 0 156 -53t59 -133q0 -55 -28.5 -102.5t-84.5 -105.5l-186 -191v-1h311v-87h-436v65l249 273q76 80 76 143q0 47 -32.5 76.5t-85.5 29.5q-55 0 -86.5 -32.5t-31.5 -78.5v-7h-95z" />
<glyph unicode="&#xb3;" horiz-adv-x="684" d="M104 875h91q3 -40 40.5 -67.5t94.5 -27.5q62 0 100 32t38 82q0 49 -38 80.5t-100 31.5h-76v84h72q53 0 86 30t33 76q0 45 -32 73t-84 28t-84.5 -27t-35.5 -65h-91q2 71 58.5 123t153.5 52q93 0 152 -48t59 -123q0 -57 -35.5 -99.5t-89.5 -55.5v-1q63 -10 105.5 -50.5 t42.5 -109.5q0 -86 -65.5 -141.5t-168.5 -55.5q-101 0 -162.5 52.5t-63.5 126.5z" />
<glyph unicode="&#xb4;" horiz-adv-x="938" d="M297 1227l242 337h131l-272 -337h-101z" />
<glyph unicode="&#xb6;" horiz-adv-x="1244" d="M150 949q0 98 31 174.5t77.5 121t108 73t114 38t104.5 9.5h145v-1575h-126v747h-20q-49 0 -103.5 12t-114.5 42.5t-107 75.5t-78 118.5t-31 163.5zM894 -210v1575h126v-1575h-126z" />
<glyph unicode="&#xb7;" horiz-adv-x="596" d="M184 717q0 49 32.5 82.5t79.5 33.5q50 0 83.5 -33.5t33.5 -82.5q0 -47 -34 -79.5t-83 -32.5q-47 0 -79.5 32.5t-32.5 79.5z" />
<glyph unicode="&#xb8;" horiz-adv-x="893" d="M300 -377q47 -14 119 -14q54 0 93 22t39 68q0 49 -40 65.5t-112 16.5h-51v64l64 162h95l-57 -147q95 0 153.5 -39t58.5 -118q0 -87 -63.5 -132.5t-157.5 -48.5q-78 -3 -141 16v85z" />
<glyph unicode="&#xb9;" horiz-adv-x="617" d="M156 1144v99l161 120h97v-656h-97v551h-5z" />
<glyph unicode="&#xba;" horiz-adv-x="659" d="M84 1034v79q0 113 69 181t178 68q108 0 176.5 -67t68.5 -182v-79q0 -117 -68 -183t-177 -66q-111 0 -179 66t-68 183zM180 1040q0 -80 39.5 -126.5t111.5 -46.5q70 0 109.5 46.5t39.5 126.5v67q0 79 -40.5 126.5t-108.5 47.5q-69 0 -110 -47.5t-41 -126.5v-67z" />
<glyph unicode="&#xbb;" horiz-adv-x="1274" d="M146 155l348 405v6l-348 403h150l353 -404v-8l-344 -402h-159zM591 155l348 405v6l-348 403h150l353 -404v-8l-344 -402h-159z" />
<glyph unicode="&#xbc;" horiz-adv-x="1395" d="M55 1144v99l161 120h97v-656h-97v551h-5zM87 0l517 681l517 682h118l-517 -682l-517 -681h-118zM781 133v78q25 45 65.5 110.5t72.5 115t82.5 126.5t67.5 104h135v-453h86v-81h-86v-133h-89v133h-334zM881 214h234v368h-5q-119 -176 -229 -364v-4z" />
<glyph unicode="&#xbd;" horiz-adv-x="1424" d="M55 1144v99l161 120h97v-656h-97v551h-5zM87 0l517 681l517 682h118l-517 -682l-517 -681h-118zM893 459v7q0 82 57.5 141t160.5 59q98 0 158 -53.5t60 -134.5q0 -55 -29 -103.5t-86 -107.5l-189 -194v-1h316v-88h-442v66l252 277q77 79 77 145q0 48 -32.5 77.5 t-86.5 29.5q-56 0 -88 -33t-32 -80v-7h-96z" />
<glyph unicode="&#xbe;" horiz-adv-x="1417" d="M39 858h92q3 -41 41 -68.5t95 -27.5q63 0 101.5 32t38.5 83q0 50 -38.5 81.5t-101.5 31.5h-76v85h72q54 0 87.5 30t33.5 77q0 45 -32.5 73.5t-85.5 28.5q-52 0 -85 -27.5t-36 -65.5h-92q2 72 59.5 124.5t154.5 52.5q95 0 154.5 -49t59.5 -124q0 -58 -36 -100.5t-91 -55.5 v-1q64 -11 107 -51.5t43 -110.5q0 -87 -66 -143t-171 -56q-101 0 -163.5 53.5t-64.5 127.5zM138 0l517 681l517 682h118l-517 -682l-517 -681h-118zM849 133v78q25 45 65.5 110.5t72.5 115t82.5 126.5t67.5 104h136v-451h85v-83h-85v-133h-90v133h-334zM949 216h234v366h-5 q-131 -193 -229 -363v-3z" />
<glyph unicode="&#xbf;" horiz-adv-x="965" d="M92 -9q0 57 15 105t45.5 88t60.5 68.5t76 65.5q94 75 125 124t31 128v73h126v-95q0 -91 -46.5 -157.5t-143.5 -143.5q-86 -68 -123 -120.5t-37 -129.5q0 -111 75 -168t186 -57q68 0 121 22t84.5 58.5t47.5 80.5t17 93h122q-1 -91 -34 -162.5t-89 -115t-125.5 -65.5 t-149.5 -22q-104 0 -189 35.5t-140 112t-55 182.5zM386 960q0 47 33.5 80t82.5 33q47 0 80 -33t33 -80q0 -49 -33 -82.5t-80 -33.5q-50 0 -83 33t-33 83z" />
<glyph unicode="&#xc0;" horiz-adv-x="1223" d="M59 0l489 1363h127l489 -1363h-137l-150 436h-537l-150 -436h-131zM299 1730h156l272 -216h-141zM376 541h465l-229 665h-6z" />
<glyph unicode="&#xc1;" horiz-adv-x="1223" d="M59 0l489 1363h127l489 -1363h-137l-150 436h-537l-150 -436h-131zM376 541h465l-229 665h-6zM492 1513l272 217h157l-284 -217h-145z" />
<glyph unicode="&#xc2;" horiz-adv-x="1223" d="M59 0l489 1363h127l489 -1363h-137l-150 436h-537l-150 -436h-131zM304 1501l280 232h77l271 -232h-136l-173 148h-5l-180 -148h-134zM376 541h465l-229 665h-6z" />
<glyph unicode="&#xc3;" horiz-adv-x="1223" d="M59 0l489 1363h127l489 -1363h-137l-150 436h-537l-150 -436h-131zM316 1488q0 88 43 144.5t126 56.5q43 0 77.5 -19t73.5 -60q20 -22 29 -31.5t26 -18.5t36 -9q37 0 60 38t25 86h91q0 -81 -47 -142.5t-123 -61.5q-53 0 -86.5 17.5t-67.5 53.5q-17 20 -28 31t-29.5 21 t-36.5 10q-74 0 -78 -116h-91zM376 541h465l-229 665h-6z" />
<glyph unicode="&#xc4;" horiz-adv-x="1223" d="M59 0l489 1363h127l489 -1363h-137l-150 436h-537l-150 -436h-131zM359 1577q0 35 25 59.5t62 24.5t62 -24.5t25 -59.5t-25 -59.5t-62 -24.5t-62 24.5t-25 59.5zM376 541h465l-229 665h-6zM689 1577q0 35 25 59.5t61 24.5q39 0 64 -24t25 -60t-25 -60t-64 -24 q-36 0 -61 24.5t-25 59.5z" />
<glyph unicode="&#xc5;" horiz-adv-x="1223" d="M59 0l482 1342q-51 20 -81.5 65.5t-30.5 102.5q0 74 52.5 126.5t128.5 52.5q74 0 127 -52.5t53 -126.5q0 -55 -30 -100t-79 -66l483 -1344h-137l-150 436h-537l-150 -436h-131zM376 541h465l-229 665h-6zM500 1509q0 -45 33 -77.5t77 -32.5q46 0 78 32.5t32 77.5 q0 46 -32 78t-78 32q-45 0 -77.5 -32.5t-32.5 -77.5z" />
<glyph unicode="&#xc6;" horiz-adv-x="1884" d="M42 0l776 1363h928v-117h-661v-491h626v-115h-626v-524h661v-116h-788v460h-513l-260 -460h-143zM504 568h454v678h-71z" />
<glyph unicode="&#xc7;" horiz-adv-x="1293" d="M147 569v219q0 277 138 441t383 164q117 0 212.5 -39.5t154 -104t89.5 -141t31 -155.5v-1h-126q0 58 -24 115t-68 104t-114 76.5t-155 29.5q-185 0 -289.5 -131t-104.5 -357v-222q0 -228 104 -354t296 -126q166 0 262.5 89t96.5 218h126v-1q0 -72 -28.5 -142.5 t-82 -131.5t-142 -101.5t-197.5 -46.5l-44 -114q95 0 153.5 -39t58.5 -118q0 -87 -63 -132.5t-158 -48.5q-78 -3 -141 16v85q47 -14 119 -14q54 0 93 22t39 68q0 48 -40 65t-112 17h-51v64l52 131q-226 16 -347 173t-121 423z" />
<glyph unicode="&#xc8;" horiz-adv-x="1135" d="M201 0v1363h796v-117h-668v-491h632v-115h-632v-524h668v-116h-796zM284 1730h156l272 -216h-141z" />
<glyph unicode="&#xc9;" horiz-adv-x="1135" d="M201 0v1363h796v-117h-668v-491h632v-115h-632v-524h668v-116h-796zM477 1513l272 217h157l-284 -217h-145z" />
<glyph unicode="&#xca;" horiz-adv-x="1135" d="M201 0v1363h796v-117h-668v-491h632v-115h-632v-524h668v-116h-796zM289 1501l280 232h77l271 -232h-136l-173 148h-5l-180 -148h-134z" />
<glyph unicode="&#xcb;" horiz-adv-x="1135" d="M201 0v1363h796v-117h-668v-491h632v-115h-632v-524h668v-116h-796zM344 1577q0 35 25 59.5t62 24.5t62 -24.5t25 -59.5t-25 -59.5t-62 -24.5t-62 24.5t-25 59.5zM674 1577q0 35 25 59.5t61 24.5q39 0 64 -24t25 -60t-25 -60t-64 -24q-36 0 -61 24.5t-25 59.5z" />
<glyph unicode="&#xcc;" horiz-adv-x="543" d="M-41 1730h156l272 -216h-141zM208 0v1363h127v-1363h-127z" />
<glyph unicode="&#xcd;" horiz-adv-x="543" d="M152 1513l272 217h157l-284 -217h-145zM208 0v1363h127v-1363h-127z" />
<glyph unicode="&#xce;" horiz-adv-x="543" d="M-36 1501l280 232h77l271 -232h-136l-173 148h-5l-180 -148h-134zM208 0v1363h127v-1363h-127z" />
<glyph unicode="&#xcf;" horiz-adv-x="543" d="M19 1577q0 35 25 59.5t62 24.5t62 -24.5t25 -59.5t-25 -59.5t-62 -24.5t-62 24.5t-25 59.5zM208 0v1363h127v-1363h-127zM349 1577q0 35 25 59.5t61 24.5q39 0 64 -24t25 -60t-25 -60t-64 -24q-36 0 -61 24.5t-25 59.5z" />
<glyph unicode="&#xd0;" horiz-adv-x="1407" d="M111 642v113h159v608h403q160 0 277.5 -49.5t187.5 -141.5t103.5 -214t33.5 -277q0 -122 -19.5 -223t-64.5 -187t-113.5 -145.5t-171 -92.5t-233.5 -33h-403v642h-159zM398 116h271q474 0 474 565q0 271 -115 418.5t-359 147.5h-271v-492h334v-113h-334v-526z" />
<glyph unicode="&#xd1;" horiz-adv-x="1398" d="M201 0v1363h129l732 -1143h7v1143h127v-1363h-128l-733 1143h-6v-1143h-128zM403 1488q0 88 43 144.5t126 56.5q43 0 77.5 -19t73.5 -60q20 -22 29 -31.5t26 -18.5t36 -9q37 0 60 38t25 86h91q0 -81 -47 -142.5t-123 -61.5q-53 0 -86.5 17.5t-67.5 53.5q-17 20 -28 31 t-29.5 21t-36.5 10q-74 0 -78 -116h-91z" />
<glyph unicode="&#xd2;" horiz-adv-x="1357" d="M147 566v221q0 281 143.5 443.5t388.5 162.5q246 0 388.5 -162.5t142.5 -444.5v-220q0 -280 -143.5 -438t-390.5 -158q-246 0 -387.5 158t-141.5 438zM274 564q0 -228 110.5 -352.5t293.5 -124.5q184 0 294.5 124.5t110.5 352.5v225q0 229 -111.5 358.5t-293.5 129.5 t-293 -129.5t-111 -358.5v-225zM365 1730h156l272 -216h-141z" />
<glyph unicode="&#xd3;" horiz-adv-x="1357" d="M147 566v221q0 281 143.5 443.5t388.5 162.5q246 0 388.5 -162.5t142.5 -444.5v-220q0 -280 -143.5 -438t-390.5 -158q-246 0 -387.5 158t-141.5 438zM274 564q0 -228 110.5 -352.5t293.5 -124.5q184 0 294.5 124.5t110.5 352.5v225q0 229 -111.5 358.5t-293.5 129.5 t-293 -129.5t-111 -358.5v-225zM558 1513l272 217h157l-284 -217h-145z" />
<glyph unicode="&#xd4;" horiz-adv-x="1357" d="M147 566v221q0 281 143.5 443.5t388.5 162.5q246 0 388.5 -162.5t142.5 -444.5v-220q0 -280 -143.5 -438t-390.5 -158q-246 0 -387.5 158t-141.5 438zM274 564q0 -228 110.5 -352.5t293.5 -124.5q184 0 294.5 124.5t110.5 352.5v225q0 229 -111.5 358.5t-293.5 129.5 t-293 -129.5t-111 -358.5v-225zM370 1501l280 232h77l271 -232h-136l-173 148h-5l-180 -148h-134z" />
<glyph unicode="&#xd5;" horiz-adv-x="1357" d="M147 566v221q0 281 143.5 443.5t388.5 162.5q246 0 388.5 -162.5t142.5 -444.5v-220q0 -280 -143.5 -438t-390.5 -158q-246 0 -387.5 158t-141.5 438zM274 564q0 -228 110.5 -352.5t293.5 -124.5q184 0 294.5 124.5t110.5 352.5v225q0 229 -111.5 358.5t-293.5 129.5 t-293 -129.5t-111 -358.5v-225zM382 1488q0 88 43 144.5t126 56.5q43 0 77.5 -19t73.5 -60q20 -22 29 -31.5t26 -18.5t36 -9q37 0 60 38t25 86h91q0 -81 -47 -142.5t-123 -61.5q-53 0 -86.5 17.5t-67.5 53.5q-17 20 -28 31t-29.5 21t-36.5 10q-74 0 -78 -116h-91z" />
<glyph unicode="&#xd6;" horiz-adv-x="1357" d="M147 566v221q0 281 143.5 443.5t388.5 162.5q246 0 388.5 -162.5t142.5 -444.5v-220q0 -280 -143.5 -438t-390.5 -158q-246 0 -387.5 158t-141.5 438zM274 564q0 -228 110.5 -352.5t293.5 -124.5q184 0 294.5 124.5t110.5 352.5v225q0 229 -111.5 358.5t-293.5 129.5 t-293 -129.5t-111 -358.5v-225zM426 1577q0 35 25 59.5t62 24.5t62 -24.5t25 -59.5t-25 -59.5t-62 -24.5t-62 24.5t-25 59.5zM756 1577q0 35 25 59.5t61 24.5q39 0 64 -24t25 -60t-25 -60t-64 -24q-36 0 -61 24.5t-25 59.5z" />
<glyph unicode="&#xd7;" d="M163 165l319 319l-319 320l74 74l320 -319l319 319l74 -74l-319 -320l319 -319l-75 -75l-318 320l-319 -320z" />
<glyph unicode="&#xd8;" horiz-adv-x="1357" d="M103 68l123 149q-79 144 -79 349v221q0 281 143 443.5t389 162.5q242 0 383 -158l107 129l80 -56l-127 -153q88 -151 88 -368v-221q0 -280 -143.5 -438t-390.5 -158q-251 0 -391 165l-106 -129zM273 564q0 -134 42 -238l666 809q-112 142 -303 142q-182 0 -293.5 -129.5 t-111.5 -358.5v-225zM366 234q109 -147 312 -147q184 0 294.5 124.5t110.5 352.5v225q0 148 -49 257z" />
<glyph unicode="&#xd9;" horiz-adv-x="1369" d="M183 475v888h127v-891q0 -176 100 -280.5t274 -104.5q175 0 275 104t100 281v891h127v-891q0 -227 -137 -364.5t-365 -137.5q-227 0 -364 139t-137 366zM372 1730h156l272 -216h-141z" />
<glyph unicode="&#xda;" horiz-adv-x="1369" d="M183 475v888h127v-891q0 -176 100 -280.5t274 -104.5q175 0 275 104t100 281v891h127v-891q0 -227 -137 -364.5t-365 -137.5q-227 0 -364 139t-137 366zM565 1513l272 217h157l-284 -217h-145z" />
<glyph unicode="&#xdb;" horiz-adv-x="1369" d="M183 475v888h127v-891q0 -176 100 -280.5t274 -104.5q175 0 275 104t100 281v891h127v-891q0 -227 -137 -364.5t-365 -137.5q-227 0 -364 139t-137 366zM377 1501l280 232h77l271 -232h-136l-173 148h-5l-180 -148h-134z" />
<glyph unicode="&#xdc;" horiz-adv-x="1369" d="M183 475v888h127v-891q0 -176 100 -280.5t274 -104.5q175 0 275 104t100 281v891h127v-891q0 -227 -137 -364.5t-365 -137.5q-227 0 -364 139t-137 366zM432 1577q0 35 25 59.5t62 24.5t62 -24.5t25 -59.5t-25 -59.5t-62 -24.5t-62 24.5t-25 59.5zM762 1577q0 35 25 59.5 t61 24.5q39 0 64 -24t25 -60t-25 -60t-64 -24q-36 0 -61 24.5t-25 59.5z" />
<glyph unicode="&#xdd;" horiz-adv-x="1120" d="M35 1363h147l373 -634h8l375 634h147l-462 -760v-603h-126v602zM440 1513l272 217h157l-284 -217h-145z" />
<glyph unicode="&#xde;" horiz-adv-x="1184" d="M201 0v1363h127v-267h322q196 0 311.5 -96t115.5 -278q0 -183 -115.5 -279t-311.5 -96h-321v-347h-128zM329 462h286q78 0 134 10.5t103 38t70.5 80t23.5 131.5q0 259 -301 259h-316v-519z" />
<glyph unicode="&#xdf;" horiz-adv-x="1236" d="M199 0v1054q0 175 104.5 276t291.5 102q182 1 290.5 -94t108.5 -249q0 -72 -26.5 -134.5t-66.5 -102.5t-84 -64.5t-84 -29.5v-9q70 -1 137 -24.5t123.5 -66.5t91.5 -114.5t35 -158.5q0 -97 -40.5 -176t-107.5 -127t-148 -73.5t-168 -25.5q-84 0 -154 17v110 q57 -19 156 -19q48 0 94 10t89.5 32.5t76 55t52.5 82.5t20 110q0 135 -102.5 215t-277.5 80h-83v130h62q107 0 192 79.5t85 193.5q0 113 -74 178t-193 65q-138 0 -205.5 -73.5t-67.5 -205.5v-1043h-127z" />
<glyph unicode="&#xe0;" horiz-adv-x="1088" d="M124 299q0 137 93.5 218.5t267.5 81.5h295v123q0 113 -66.5 169t-184.5 56q-109 0 -166.5 -40t-73.5 -104h-123q11 120 107.5 188.5t261.5 68.5q167 0 269.5 -82t102.5 -250v-728h-122v152h-6q-39 -69 -117.5 -119t-197.5 -50q-152 0 -246 86.5t-94 229.5zM253 1566h131 l241 -337h-100zM255 302q0 -98 67.5 -153.5t169.5 -55.5q122 0 205 74.5t83 187.5v137h-293q-118 0 -175 -51.5t-57 -138.5z" />
<glyph unicode="&#xe1;" horiz-adv-x="1088" d="M124 299q0 137 93.5 218.5t267.5 81.5h295v123q0 113 -66.5 169t-184.5 56q-109 0 -166.5 -40t-73.5 -104h-123q11 120 107.5 188.5t261.5 68.5q167 0 269.5 -82t102.5 -250v-728h-122v152h-6q-39 -69 -117.5 -119t-197.5 -50q-152 0 -246 86.5t-94 229.5zM255 302 q0 -98 67.5 -153.5t169.5 -55.5q122 0 205 74.5t83 187.5v137h-293q-118 0 -175 -51.5t-57 -138.5zM501 1229l242 337h131l-272 -337h-101z" />
<glyph unicode="&#xe2;" horiz-adv-x="1088" d="M124 299q0 137 93.5 218.5t267.5 81.5h295v123q0 113 -66.5 169t-184.5 56q-109 0 -166.5 -40t-73.5 -104h-123q11 120 107.5 188.5t261.5 68.5q167 0 269.5 -82t102.5 -250v-728h-122v152h-6q-39 -69 -117.5 -119t-197.5 -50q-152 0 -246 86.5t-94 229.5zM255 302 q0 -98 67.5 -153.5t169.5 -55.5q122 0 205 74.5t83 187.5v137h-293q-118 0 -175 -51.5t-57 -138.5zM255 1226l246 367h86l237 -367h-112l-167 273h-4l-174 -273h-112z" />
<glyph unicode="&#xe3;" horiz-adv-x="1088" d="M124 299q0 137 93.5 218.5t267.5 81.5h295v123q0 113 -66.5 169t-184.5 56q-109 0 -166.5 -40t-73.5 -104h-123q11 120 107.5 188.5t261.5 68.5q167 0 269.5 -82t102.5 -250v-728h-122v152h-6q-39 -69 -117.5 -119t-197.5 -50q-152 0 -246 86.5t-94 229.5zM243 1191 q0 102 46 166.5t125 64.5q49 0 84 -20t70 -69q1 -2 8 -11.5t8.5 -11.5l7.5 -10t8 -10t7.5 -8t9 -8t9.5 -5.5t11 -5t11.5 -2.5t13.5 -1q37 0 61 44.5t26 101.5h93q0 -93 -51 -163.5t-121 -70.5q-56 0 -91.5 20t-65.5 64q-16 23 -26.5 35.5t-30 24.5t-41.5 12q-76 0 -80 -137 h-92zM255 302q0 -98 67.5 -153.5t169.5 -55.5q122 0 205 74.5t83 187.5v137h-293q-118 0 -175 -51.5t-57 -138.5z" />
<glyph unicode="&#xe4;" horiz-adv-x="1088" d="M124 299q0 137 93.5 218.5t267.5 81.5h295v123q0 113 -66.5 169t-184.5 56q-109 0 -166.5 -40t-73.5 -104h-123q11 120 107.5 188.5t261.5 68.5q167 0 269.5 -82t102.5 -250v-728h-122v152h-6q-39 -69 -117.5 -119t-197.5 -50q-152 0 -246 86.5t-94 229.5zM255 302 q0 -98 67.5 -153.5t169.5 -55.5q122 0 205 74.5t83 187.5v137h-293q-118 0 -175 -51.5t-57 -138.5zM290 1296q0 36 26 61.5t63 25.5t63.5 -25.5t26.5 -61.5q0 -35 -26.5 -60.5t-63.5 -25.5t-63 25.5t-26 60.5zM623 1296q0 36 25.5 61.5t60.5 25.5q39 0 65.5 -25.5 t26.5 -61.5q0 -35 -26.5 -60.5t-65.5 -25.5q-35 0 -60.5 26t-25.5 60z" />
<glyph unicode="&#xe5;" horiz-adv-x="1088" d="M124 299q0 137 93.5 218.5t267.5 81.5h295v123q0 113 -66.5 169t-184.5 56q-109 0 -166.5 -40t-73.5 -104h-123q11 120 107.5 188.5t261.5 68.5q167 0 269.5 -82t102.5 -250v-728h-122v152h-6q-39 -69 -117.5 -119t-197.5 -50q-152 0 -246 86.5t-94 229.5zM255 302 q0 -98 67.5 -153.5t169.5 -55.5q122 0 205 74.5t83 187.5v137h-293q-118 0 -175 -51.5t-57 -138.5zM365 1370q0 75 52.5 126t127.5 51t127.5 -51t52.5 -126t-52.5 -126.5t-127.5 -51.5t-127.5 51.5t-52.5 126.5zM436 1369q0 -45 32 -77.5t77 -32.5t76.5 32.5t31.5 77.5 q0 46 -31 78t-77 32q-45 0 -77 -32t-32 -78z" />
<glyph unicode="&#xe6;" horiz-adv-x="1744" d="M122 297q0 142 96 222t271 80h293v123q0 112 -69 168.5t-182 56.5q-110 0 -169.5 -40.5t-75.5 -103.5h-123q11 120 110.5 188.5t263.5 68.5q111 0 198.5 -43t124.5 -126h10q44 82 132.5 125.5t196.5 43.5q185 0 297 -124.5t112 -341.5v-102h-699v-76q0 -145 81.5 -232.5 t220.5 -87.5q107 0 173 46t81 108h133q-6 -43 -32 -87.5t-71 -86t-119.5 -67.5t-164.5 -26q-148 0 -246 64t-129 165h-10q-33 -96 -125.5 -162.5t-231.5 -66.5q-156 0 -251.5 85t-95.5 229zM249 301q0 -98 70.5 -153t174.5 -55q121 0 204.5 74.5t83.5 187.5v137h-291 q-119 0 -180.5 -52t-61.5 -139zM909 592h573v20q0 158 -75.5 247.5t-207.5 89.5q-128 0 -209 -90t-81 -238v-29z" />
<glyph unicode="&#xe7;" horiz-adv-x="1070" d="M136 435v178q0 207 114.5 327t306.5 120q92 0 167 -27.5t121.5 -72.5t72.5 -99t29 -110h-125q-6 34 -22.5 66t-46 63t-80 50t-115.5 19q-140 0 -218.5 -92t-78.5 -253v-168q0 -158 80 -246.5t220 -88.5q123 0 186 49.5t80 127.5h125q-3 -50 -24 -97t-59.5 -88.5 t-103 -70.5t-145.5 -37l-48 -125q95 0 153.5 -39t58.5 -118q0 -87 -63.5 -132.5t-157.5 -48.5q-78 -3 -141 16v85q47 -14 119 -14q54 0 93 22t39 68q0 49 -40 65.5t-112 16.5h-51v64l55 139q-181 11 -285 130t-104 321z" />
<glyph unicode="&#xe8;" horiz-adv-x="1103" d="M137 443v151q0 216 115 341t302 125q186 0 301.5 -125t115.5 -341v-102h-708v-55q0 -155 80 -248t223 -93q107 0 175.5 46.5t81.5 107.5h133q-6 -43 -32.5 -87.5t-72 -86t-120.5 -67.5t-165 -26q-202 0 -315.5 123t-113.5 337zM261 1566h131l241 -337h-100zM263 592h581 v15q0 157 -79 249.5t-211 92.5t-211.5 -92.5t-79.5 -249.5v-15z" />
<glyph unicode="&#xe9;" horiz-adv-x="1103" d="M137 443v151q0 216 115 341t302 125q186 0 301.5 -125t115.5 -341v-102h-708v-55q0 -155 80 -248t223 -93q107 0 175.5 46.5t81.5 107.5h133q-6 -43 -32.5 -87.5t-72 -86t-120.5 -67.5t-165 -26q-202 0 -315.5 123t-113.5 337zM263 592h581v15q0 157 -79 249.5t-211 92.5 t-211.5 -92.5t-79.5 -249.5v-15zM509 1229l242 337h131l-272 -337h-101z" />
<glyph unicode="&#xea;" horiz-adv-x="1103" d="M137 443v151q0 216 115 341t302 125q186 0 301.5 -125t115.5 -341v-102h-708v-55q0 -155 80 -248t223 -93q107 0 175.5 46.5t81.5 107.5h133q-6 -43 -32.5 -87.5t-72 -86t-120.5 -67.5t-165 -26q-202 0 -315.5 123t-113.5 337zM263 592h581v15q0 157 -79 249.5t-211 92.5 t-211.5 -92.5t-79.5 -249.5v-15zM263 1226l246 367h86l237 -367h-112l-167 273h-4l-174 -273h-112z" />
<glyph unicode="&#xeb;" horiz-adv-x="1103" d="M137 443v151q0 216 115 341t302 125q186 0 301.5 -125t115.5 -341v-102h-708v-55q0 -155 80 -248t223 -93q107 0 175.5 46.5t81.5 107.5h133q-6 -43 -32.5 -87.5t-72 -86t-120.5 -67.5t-165 -26q-202 0 -315.5 123t-113.5 337zM263 592h581v15q0 157 -79 249.5t-211 92.5 t-211.5 -92.5t-79.5 -249.5v-15zM297 1296q0 36 26 61.5t63 25.5t63.5 -25.5t26.5 -61.5q0 -35 -26.5 -60.5t-63.5 -25.5t-63 25.5t-26 60.5zM630 1296q0 36 25.5 61.5t60.5 25.5q39 0 65.5 -25.5t26.5 -61.5q0 -35 -26.5 -60.5t-65.5 -25.5q-34 0 -60 26t-26 60z" />
<glyph unicode="&#xec;" horiz-adv-x="533" d="M-24 1566h131l241 -337h-100zM203 0v1043h126v-1043h-126z" />
<glyph unicode="&#xed;" horiz-adv-x="533" d="M203 0v1043h126v-1043h-126zM224 1229l242 337h131l-272 -337h-101z" />
<glyph unicode="&#xee;" horiz-adv-x="533" d="M-22 1226l246 367h86l237 -367h-112l-167 273h-4l-174 -273h-112zM203 0v1043h126v-1043h-126z" />
<glyph unicode="&#xef;" horiz-adv-x="533" d="M13 1296q0 36 26 61.5t63 25.5t63.5 -25.5t26.5 -61.5q0 -35 -26.5 -60.5t-63.5 -25.5t-63 25.5t-26 60.5zM203 0v1043h126v-1043h-126zM346 1296q0 36 25.5 61.5t60.5 25.5q39 0 65.5 -25.5t26.5 -61.5q0 -35 -26.5 -60.5t-65.5 -25.5q-34 0 -60 26t-26 60z" />
<glyph unicode="&#xf0;" horiz-adv-x="1144" d="M136 439v108q0 210 123 333.5t313 123.5q108 0 184 -43t118 -108h7l-8 61q-11 84 -49 169.5t-95 151.5l-284 -101l-25 79l248 87q-87 86 -197 145l76 81q138 -70 242 -183l243 86l27 -75l-214 -76q163 -219 163 -537v-302q0 -214 -122.5 -335t-313.5 -121 q-193 0 -314.5 120t-121.5 336zM261 453q0 -168 84 -262.5t227 -94.5q142 0 225.5 94.5t83.5 262.5v114q0 150 -85 238t-224 88t-225 -97.5t-86 -262.5v-80z" />
<glyph unicode="&#xf1;" horiz-adv-x="1181" d="M186 0v1043h126v-197h6q12 39 33.5 72.5t58.5 67.5t97.5 54t137.5 20q163 0 260 -91t97 -262v-707h-127v672q0 130 -67 204t-189 74q-148 0 -227.5 -100t-79.5 -250v-600h-126zM290 1191q0 102 46 166.5t125 64.5q49 0 84 -20t70 -69q1 -2 8 -11.5t8.5 -11.5l7.5 -10 t8 -10t7.5 -8t9 -8t9.5 -5.5t11 -5t11.5 -2.5t13.5 -1q37 0 61 44.5t26 101.5h93q0 -93 -51 -163.5t-121 -70.5q-56 0 -91.5 20t-65.5 64q-16 23 -26.5 35.5t-30 24.5t-41.5 12q-76 0 -80 -137h-92z" />
<glyph unicode="&#xf2;" horiz-adv-x="1144" d="M136 439v165q0 210 123 333t313 123t313 -121.5t123 -334.5v-165q0 -214 -122.5 -335t-313.5 -121q-193 0 -314.5 120t-121.5 336zM261 453q0 -168 84 -262.5t227 -94.5q142 0 225.5 94.5t83.5 262.5v136q0 166 -85 263t-224 97t-225 -97.5t-86 -262.5v-136zM281 1566 h131l241 -337h-100z" />
<glyph unicode="&#xf3;" horiz-adv-x="1144" d="M136 439v165q0 210 123 333t313 123t313 -121.5t123 -334.5v-165q0 -214 -122.5 -335t-313.5 -121q-193 0 -314.5 120t-121.5 336zM261 453q0 -168 84 -262.5t227 -94.5q142 0 225.5 94.5t83.5 262.5v136q0 166 -85 263t-224 97t-225 -97.5t-86 -262.5v-136zM529 1229 l242 337h131l-272 -337h-101z" />
<glyph unicode="&#xf4;" horiz-adv-x="1144" d="M136 439v165q0 210 123 333t313 123t313 -121.5t123 -334.5v-165q0 -214 -122.5 -335t-313.5 -121q-193 0 -314.5 120t-121.5 336zM261 453q0 -168 84 -262.5t227 -94.5q142 0 225.5 94.5t83.5 262.5v136q0 166 -85 263t-224 97t-225 -97.5t-86 -262.5v-136zM283 1226 l246 367h86l237 -367h-112l-167 273h-4l-174 -273h-112z" />
<glyph unicode="&#xf5;" horiz-adv-x="1144" d="M136 439v165q0 210 123 333t313 123t313 -121.5t123 -334.5v-165q0 -214 -122.5 -335t-313.5 -121q-193 0 -314.5 120t-121.5 336zM261 453q0 -168 84 -262.5t227 -94.5q142 0 225.5 94.5t83.5 262.5v136q0 166 -85 263t-224 97t-225 -97.5t-86 -262.5v-136zM271 1191 q0 102 46 166.5t125 64.5q49 0 84 -20t70 -69q1 -2 8 -11.5t8.5 -11.5l7.5 -10t8 -10t7.5 -8t9 -8t9.5 -5.5t11 -5t11.5 -2.5t13.5 -1q37 0 61 44.5t26 101.5h93q0 -93 -51 -163.5t-121 -70.5q-56 0 -91.5 20t-65.5 64q-16 23 -26.5 35.5t-30 24.5t-41.5 12q-76 0 -80 -137 h-92z" />
<glyph unicode="&#xf6;" horiz-adv-x="1144" d="M136 439v165q0 210 123 333t313 123t313 -121.5t123 -334.5v-165q0 -214 -122.5 -335t-313.5 -121q-193 0 -314.5 120t-121.5 336zM261 453q0 -168 84 -262.5t227 -94.5q142 0 225.5 94.5t83.5 262.5v136q0 166 -85 263t-224 97t-225 -97.5t-86 -262.5v-136zM318 1296 q0 36 26 61.5t63 25.5t63.5 -25.5t26.5 -61.5q0 -35 -26.5 -60.5t-63.5 -25.5t-63 25.5t-26 60.5zM651 1296q0 36 25.5 61.5t60.5 25.5q39 0 65.5 -25.5t26.5 -61.5q0 -35 -26.5 -60.5t-65.5 -25.5q-35 0 -60.5 26t-25.5 60z" />
<glyph unicode="&#xf7;" horiz-adv-x="1128" d="M101 490v107h927v-107h-927zM456 921q0 46 31.5 78t75.5 32q47 0 79 -31.5t32 -78.5q0 -46 -32 -76.5t-79 -30.5q-45 0 -76 31t-31 76zM461 172q0 46 31.5 78t75.5 32q47 0 79 -31.5t32 -78.5q0 -45 -32 -76t-79 -31q-44 0 -75.5 31t-31.5 76z" />
<glyph unicode="&#xf8;" horiz-adv-x="1144" d="M118 0l110 145q-92 119 -92 294v165q0 210 123 333t313 123q164 0 277 -101l111 143l74 -57l-117 -151q91 -121 91 -290v-165q0 -214 -122.5 -335t-313.5 -121q-163 0 -276 96l-102 -135zM258 432q0 -110 42 -189l483 628q-79 81 -211 81q-139 0 -226.5 -99t-87.5 -264 v-157zM362 168q80 -75 210 -75q142 0 227 96t85 264v157q0 107 -40 184z" />
<glyph unicode="&#xf9;" horiz-adv-x="1177" d="M177 321v722h127v-693q0 -129 69.5 -193t186.5 -64q134 0 219.5 88.5t85.5 208.5v653h126v-1043h-126v185h-8q-28 -80 -110 -141t-213 -61q-163 0 -260 82.5t-97 255.5zM298 1566h131l241 -337h-100z" />
<glyph unicode="&#xfa;" horiz-adv-x="1177" d="M177 321v722h127v-693q0 -129 69.5 -193t186.5 -64q134 0 219.5 88.5t85.5 208.5v653h126v-1043h-126v185h-8q-28 -80 -110 -141t-213 -61q-163 0 -260 82.5t-97 255.5zM546 1229l242 337h131l-272 -337h-101z" />
<glyph unicode="&#xfb;" horiz-adv-x="1177" d="M177 321v722h127v-693q0 -129 69.5 -193t186.5 -64q134 0 219.5 88.5t85.5 208.5v653h126v-1043h-126v185h-8q-28 -80 -110 -141t-213 -61q-163 0 -260 82.5t-97 255.5zM300 1226l246 367h86l237 -367h-112l-167 273h-4l-174 -273h-112z" />
<glyph unicode="&#xfc;" horiz-adv-x="1177" d="M177 321v722h127v-693q0 -129 69.5 -193t186.5 -64q134 0 219.5 88.5t85.5 208.5v653h126v-1043h-126v185h-8q-28 -80 -110 -141t-213 -61q-163 0 -260 82.5t-97 255.5zM334 1296q0 36 26 61.5t63 25.5t63.5 -25.5t26.5 -61.5q0 -35 -26.5 -60.5t-63.5 -25.5t-63 25.5 t-26 60.5zM667 1296q0 36 25.5 61.5t60.5 25.5q39 0 65.5 -25.5t26.5 -61.5q0 -35 -26.5 -60.5t-65.5 -25.5q-35 0 -60.5 26t-25.5 60z" />
<glyph unicode="&#xfd;" horiz-adv-x="1033" d="M62 1043h140l311 -913h6l309 913h134l-377 -1050l-33 -90q-24 -64 -46.5 -106.5t-58.5 -83t-87 -60.5t-119 -20q-52 0 -99 9v108q32 -7 81 -7q85 0 131.5 42t72.5 125l24 75zM473 1229l242 337h131l-272 -337h-101z" />
<glyph unicode="&#xfe;" horiz-adv-x="1176" d="M185 1436h120l2 -574h6q30 80 113 139t211 59q178 0 290 -117.5t112 -324.5v-192q0 -205 -111.5 -324t-295.5 -119q-68 0 -125 18t-93.5 48.5t-59 60.5t-35.5 62h-7v-526h-125zM312 419q0 -137 83.5 -230t221.5 -93q133 0 214.5 92t81.5 266v134q0 175 -82 268t-217 93 q-139 0 -220.5 -93.5t-81.5 -246.5v-190z" />
<glyph unicode="&#xff;" horiz-adv-x="1033" d="M62 1043h140l311 -913h6l309 913h134l-377 -1050l-33 -90q-24 -64 -46.5 -106.5t-58.5 -83t-87 -60.5t-119 -20q-52 0 -99 9v108q32 -7 81 -7q85 0 131.5 42t72.5 125l24 75zM262 1296q0 36 26 61.5t63 25.5t63.5 -25.5t26.5 -61.5q0 -35 -26.5 -60.5t-63.5 -25.5 t-63 25.5t-26 60.5zM595 1296q0 36 25.5 61.5t60.5 25.5q39 0 65.5 -25.5t26.5 -61.5q0 -35 -26.5 -60.5t-65.5 -25.5q-35 0 -60.5 26t-25.5 60z" />
<glyph unicode="&#x152;" horiz-adv-x="2012" d="M147 566v221q0 282 142 444t387 162q131 0 235.5 -52t157.5 -147h10v169h789v-117h-661v-491h625v-115h-625v-524h661v-116h-789v176h-9q-58 -99 -162 -152.5t-234 -53.5q-247 0 -387 157.5t-140 438.5zM273 564q0 -228 109.5 -352.5t292.5 -124.5q182 0 293 118t111 334 v283q0 214 -111 334.5t-293 120.5q-181 0 -291.5 -129.5t-110.5 -358.5v-225z" />
<glyph unicode="&#x153;" horiz-adv-x="1850" d="M136 439v165q0 210 123 333t313 123q123 0 219 -52.5t149 -156.5h9q48 99 140.5 154t209.5 55q186 0 300.5 -125t114.5 -341v-102h-706v-55q0 -155 80 -248t223 -93q107 0 176 46.5t84 107.5h133q-6 -43 -33 -87.5t-73 -86t-121.5 -67.5t-165.5 -26q-126 0 -221.5 55.5 t-140.5 153.5h-10q-50 -98 -148 -153.5t-219 -55.5q-193 0 -314.5 120t-121.5 336zM261 453q0 -168 84 -262.5t227 -94.5q142 0 225.5 94.5t83.5 262.5v136q0 166 -85 263t-224 97t-225 -97.5t-86 -262.5v-136zM1008 592h580v15q0 157 -78.5 249.5t-210.5 92.5t-211.5 -92.5 t-79.5 -249.5v-15z" />
<glyph unicode="&#x178;" horiz-adv-x="1120" d="M35 1363h147l373 -634h8l375 634h147l-462 -760v-603h-126v602zM307 1577q0 35 25 59.5t62 24.5t62 -24.5t25 -59.5t-25 -59.5t-62 -24.5t-62 24.5t-25 59.5zM637 1577q0 35 25 59.5t61 24.5q39 0 64 -24t25 -60t-25 -60t-64 -24q-36 0 -61 24.5t-25 59.5z" />
<glyph unicode="&#x2c6;" horiz-adv-x="938" d="M194 1213l246 367h86l237 -367h-112l-167 273h-4l-174 -273h-112z" />
<glyph unicode="&#x2dc;" horiz-adv-x="938" d="M165 1253q0 102 46 166.5t125 64.5q49 0 84 -20t70 -69q1 -2 8 -11.5t8.5 -11.5l7.5 -10t8 -10t7.5 -8t9 -8t9.5 -5.5t11 -5t11.5 -2.5t13.5 -1q37 0 61 44.5t26 101.5h93q0 -93 -51 -163.5t-121 -70.5q-56 0 -91.5 20t-65.5 64q-16 23 -26.5 35.5t-30 24.5t-41.5 12 q-76 0 -80 -137h-92z" />
<glyph unicode="&#x2000;" horiz-adv-x="866" />
<glyph unicode="&#x2001;" horiz-adv-x="1733" />
<glyph unicode="&#x2002;" horiz-adv-x="866" />
<glyph unicode="&#x2003;" horiz-adv-x="1733" />
<glyph unicode="&#x2004;" horiz-adv-x="577" />
<glyph unicode="&#x2005;" horiz-adv-x="433" />
<glyph unicode="&#x2006;" horiz-adv-x="288" />
<glyph unicode="&#x2007;" horiz-adv-x="288" />
<glyph unicode="&#x2008;" horiz-adv-x="216" />
<glyph unicode="&#x2009;" horiz-adv-x="346" />
<glyph unicode="&#x200a;" horiz-adv-x="96" />
<glyph unicode="&#x2010;" horiz-adv-x="826" d="M98 504v113h630v-113h-630z" />
<glyph unicode="&#x2011;" horiz-adv-x="826" d="M98 504v113h630v-113h-630z" />
<glyph unicode="&#x2012;" horiz-adv-x="826" d="M98 504v113h630v-113h-630z" />
<glyph unicode="&#x2013;" horiz-adv-x="1181" d="M0 505v113h1181v-113h-1181z" />
<glyph unicode="&#x2014;" horiz-adv-x="2048" d="M0 504v113h2048v-113h-2048z" />
<glyph unicode="&#x2018;" horiz-adv-x="563" d="M154 867l147 496h108l-101 -496h-154z" />
<glyph unicode="&#x2019;" horiz-adv-x="559" d="M154 867l98 496h154l-145 -496h-107z" />
<glyph unicode="&#x201a;" horiz-adv-x="561" d="M154 -391l99 489h154l-147 -489h-106z" />
<glyph unicode="&#x201c;" horiz-adv-x="883" d="M154 866l105 497h114l-72 -497h-147zM515 866l104 497h110l-67 -497h-147z" />
<glyph unicode="&#x201d;" horiz-adv-x="886" d="M154 866l67 497h148l-105 -497h-110zM513 866l73 497h146l-105 -497h-114z" />
<glyph unicode="&#x201e;" horiz-adv-x="883" d="M154 -391l67 497h148l-105 -497h-110zM510 -391l73 497h146l-105 -497h-114z" />
<glyph unicode="&#x2022;" horiz-adv-x="983" d="M232 596q0 107 75.5 183t182.5 76t183 -76t76 -183q0 -106 -76.5 -182t-182.5 -76t-182 76t-76 182z" />
<glyph unicode="&#x2026;" horiz-adv-x="1493" d="M161 96q0 49 32.5 82.5t79.5 33.5q50 0 83.5 -33.5t33.5 -82.5q0 -47 -34 -79.5t-83 -32.5q-47 0 -79.5 32.5t-32.5 79.5zM628 96q0 49 33 82.5t80 33.5q49 0 82.5 -33t33.5 -83q0 -47 -33.5 -79.5t-82.5 -32.5q-47 0 -80 32.5t-33 79.5zM1096 96q0 49 32.5 82.5 t79.5 33.5q50 0 83 -33t33 -83q0 -47 -33.5 -79.5t-82.5 -32.5q-47 0 -79.5 32.5t-32.5 79.5z" />
<glyph unicode="&#x202f;" horiz-adv-x="346" />
<glyph unicode="&#x2039;" horiz-adv-x="824" d="M142 557v8l354 404h150l-348 -403v-6l348 -405h-159z" />
<glyph unicode="&#x203a;" horiz-adv-x="823" d="M155 155l348 405v6l-348 403h150l353 -404v-8l-344 -402h-159z" />
<glyph unicode="&#x205f;" horiz-adv-x="433" />
<glyph unicode="&#x20ac;" d="M57 475v104h129v190h-129v104h131q16 520 447 520q92 0 165.5 -27t120.5 -71t78 -104t43.5 -123t12.5 -131h-127q0 68 -15 126t-47 107t-91 77.5t-139 28.5q-158 0 -236 -99.5t-85 -303.5h396v-104h-398v-190h398v-104h-396q6 -200 86 -293.5t235 -93.5q81 0 140 26 t90.5 72t45.5 99t14 118h127q0 -60 -11.5 -117t-41.5 -115.5t-75.5 -101.5t-120.5 -70.5t-169 -27.5q-214 0 -326.5 121.5t-120.5 382.5h-131z" />
<glyph unicode="&#x2122;" horiz-adv-x="1800" d="M115 1278v86h601v-86h-252v-604h-99v604h-250zM887 674v690h97l263 -513h6l261 513h97v-690h-87v509h-7l-236 -457h-63l-237 458h-6v-510h-88z" />
<glyph unicode="&#x25fc;" horiz-adv-x="1045" d="M0 0v1045h1045v-1045h-1045z" />
<glyph unicode="&#xfb01;" horiz-adv-x="1278" d="M83 935v108h180v116q0 147 71.5 214t229.5 67q67 0 112 -8v-106q-45 5 -101 5q-100 0 -143.5 -39t-43.5 -139v-110h264v-108h-264v-935h-125v935h-180zM903 1361q0 44 29 72.5t71 28.5q44 0 72.5 -28.5t28.5 -72.5q0 -42 -29 -70.5t-72 -28.5q-42 0 -71 28.5t-29 70.5z M941 0v1043h125v-1043h-125z" />
<glyph unicode="&#xfb02;" horiz-adv-x="1267" d="M83 935v108h180v116q0 147 71.5 214t229.5 67q67 0 112 -8v-106q-45 5 -101 5q-100 0 -143.5 -39t-43.5 -139v-110h264v-108h-264v-935h-125v935h-180zM945 0v1436h126v-1436h-126z" />
</font>
</defs>
</svg>
